  0
SECTION
  2
HEADER
  9
$ACADVER
  1
AC1015
  9
$ACADMAINTVER
 70
     6
  9
$DWGCODEPAGE
  3
ANSI_1252
  9
$INSBASE
 10
0.0
 20
0.0
 30
0.0
  9
$EXTMIN
 10
-70376.34825
 20
2972.233
 30
0.0
  9
$EXTMAX
 10
-69948.866
 20
3248.83925
 30
0.0
  9
$LIMMIN
 10
-71180.943202
 20
2092.200048
  9
$LIMMAX
 10
-69144.271048
 20
4128.872202
  9
$ORTHOMODE
 70
     0
  9
$REGENMODE
 70
     1
  9
$FILLMODE
 70
     1
  9
$QTEXTMODE
 70
     0
  9
$MIRRTEXT
 70
     1
  9
$LTSCALE
 40
1.0
  9
$ATTMODE
 70
     1
  9
$TEXTSIZE
 40
1.3125
  9
$TRACEWID
 40
0.05
  9
$TEXTSTYLE
  7
Standard
  9
$CLAYER
  8
STRUCTURES TEXT
  9
$CELTYPE
  6
ByLayer
  9
$CECOLOR
 62
   256
  9
$CELTSCALE
 40
1.0
  9
$DISPSILH
 70
     0
  9
$DIMSCALE
 40
1.0
  9
$DIMASZ
 40
1.3125
  9
$DIMEXO
 40
0.65625
  9
$DIMDLI
 40
0.0
  9
$DIMRND
 40
0.0
  9
$DIMDLE
 40
0.0
  9
$DIMEXE
 40
0.65625
  9
$DIMTP
 40
0.0
  9
$DIMTM
 40
0.0
  9
$DIMTXT
 40
1.3125
  9
$DIMCEN
 40
0.09
  9
$DIMTSZ
 40
0.0
  9
$DIMTOL
 70
     0
  9
$DIMLIM
 70
     0
  9
$DIMTIH
 70
     0
  9
$DIMTOH
 70
     0
  9
$DIMSE1
 70
     0
  9
$DIMSE2
 70
     0
  9
$DIMTAD
 70
     1
  9
$DIMZIN
 70
    15
  9
$DIMBLK
  1

  9
$DIMASO
 70
     1
  9
$DIMSHO
 70
     1
  9
$DIMPOST
  1

  9
$DIMAPOST
  1

  9
$DIMALT
 70
     0
  9
$DIMALTD
 70
     2
  9
$DIMALTF
 40
25.4
  9
$DIMLFAC
 40
1.0
  9
$DIMTOFL
 70
     1
  9
$DIMTVP
 40
0.0
  9
$DIMTIX
 70
     0
  9
$DIMSOXD
 70
     0
  9
$DIMSAH
 70
     0
  9
$DIMBLK1
  1

  9
$DIMBLK2
  1

  9
$DIMSTYLE
  2
Tim
  9
$DIMCLRD
 70
     2
  9
$DIMCLRE
 70
     2
  9
$DIMCLRT
 70
     1
  9
$DIMTFAC
 40
1.0
  9
$DIMGAP
 40
0.65625
  9
$DIMJUST
 70
     0
  9
$DIMSD1
 70
     0
  9
$DIMSD2
 70
     0
  9
$DIMTOLJ
 70
     0
  9
$DIMTZIN
 70
    15
  9
$DIMALTZ
 70
    15
  9
$DIMALTTZ
 70
    15
  9
$DIMUPT
 70
     1
  9
$DIMDEC
 70
     4
  9
$DIMTDEC
 70
     4
  9
$DIMALTU
 70
     2
  9
$DIMALTTD
 70
     2
  9
$DIMTXSTY
  7
Style-straight_squash
  9
$DIMAUNIT
 70
     0
  9
$DIMADEC
 70
     2
  9
$DIMALTRND
 40
0.0
  9
$DIMAZIN
 70
     3
  9
$DIMDSEP
 70
    46
  9
$DIMATFIT
 70
     3
  9
$DIMFRAC
 70
     0
  9
$DIMLDRBLK
  1

  9
$DIMLUNIT
 70
     4
  9
$DIMLWD
 70
    30
  9
$DIMLWE
 70
    30
  9
$DIMTMOVE
 70
     2
  9
$LUNITS
 70
     4
  9
$LUPREC
 70
     4
  9
$SKETCHINC
 40
0.1
  9
$FILLETRAD
 40
0.5
  9
$AUNITS
 70
     0
  9
$AUPREC
 70
     2
  9
$MENU
  1
.
  9
$ELEVATION
 40
0.0
  9
$PELEVATION
 40
0.0
  9
$THICKNESS
 40
0.0
  9
$LIMCHECK
 70
     0
  9
$CHAMFERA
 40
0.5
  9
$CHAMFERB
 40
0.5
  9
$CHAMFERC
 40
1.0
  9
$CHAMFERD
 40
0.0
  9
$SKPOLY
 70
     0
  9
$TDCREATE
 40
2451789.32913537
  9
$TDUCREATE
 40
2451789.537468704
  9
$TDUPDATE
 40
2451789.329227963
  9
$TDUUPDATE
 40
2451789.537561297
  9
$TDINDWG
 40
0.0000927662
  9
$TDUSRTIMER
 40
0.0000925926
  9
$USRTIMER
 70
     1
  9
$ANGBASE
 50
0.0
  9
$ANGDIR
 70
     0
  9
$PDMODE
 70
     0
  9
$PDSIZE
 40
0.0
  9
$PLINEWID
 40
0.0
  9
$SPLFRAME
 70
     0
  9
$SPLINETYPE
 70
     6
  9
$SPLINESEGS
 70
     8
  9
$HANDSEED
  5
4386
  9
$SURFTAB1
 70
     6
  9
$SURFTAB2
 70
     6
  9
$SURFTYPE
 70
     6
  9
$SURFU
 70
     6
  9
$SURFV
 70
     6
  9
$UCSBASE
  2

  9
$UCSNAME
  2

  9
$UCSORG
 10
0.0
 20
0.0
 30
0.0
  9
$UCSXDIR
 10
1.0
 20
0.0
 30
0.0
  9
$UCSYDIR
 10
0.0
 20
1.0
 30
0.0
  9
$UCSORTHOREF
  2

  9
$UCSORTHOVIEW
 70
     0
  9
$UCSORGTOP
 10
0.0
 20
0.0
 30
0.0
  9
$UCSORGBOTTOM
 10
0.0
 20
0.0
 30
0.0
  9
$UCSORGLEFT
 10
0.0
 20
0.0
 30
0.0
  9
$UCSORGRIGHT
 10
0.0
 20
0.0
 30
0.0
  9
$UCSORGFRONT
 10
0.0
 20
0.0
 30
0.0
  9
$UCSORGBACK
 10
0.0
 20
0.0
 30
0.0
  9
$PUCSBASE
  2

  9
$PUCSNAME
  2

  9
$PUCSORG
 10
0.0
 20
0.0
 30
0.0
  9
$PUCSXDIR
 10
1.0
 20
0.0
 30
0.0
  9
$PUCSYDIR
 10
0.0
 20
1.0
 30
0.0
  9
$PUCSORTHOREF
  2

  9
$PUCSORTHOVIEW
 70
     0
  9
$PUCSORGTOP
 10
0.0
 20
0.0
 30
0.0
  9
$PUCSORGBOTTOM
 10
0.0
 20
0.0
 30
0.0
  9
$PUCSORGLEFT
 10
0.0
 20
0.0
 30
0.0
  9
$PUCSORGRIGHT
 10
0.0
 20
0.0
 30
0.0
  9
$PUCSORGFRONT
 10
0.0
 20
0.0
 30
0.0
  9
$PUCSORGBACK
 10
0.0
 20
0.0
 30
0.0
  9
$USERI1
 70
     0
  9
$USERI2
 70
     0
  9
$USERI3
 70
     0
  9
$USERI4
 70
     0
  9
$USERI5
 70
     0
  9
$USERR1
 40
0.0
  9
$USERR2
 40
0.0
  9
$USERR3
 40
0.0
  9
$USERR4
 40
0.0
  9
$USERR5
 40
0.0
  9
$WORLDVIEW
 70
     1
  9
$SHADEDGE
 70
     3
  9
$SHADEDIF
 70
    70
  9
$TILEMODE
 70
     1
  9
$MAXACTVP
 70
    64
  9
$PINSBASE
 10
0.0
 20
0.0
 30
0.0
  9
$PLIMCHECK
 70
     0
  9
$PEXTMIN
 10
1.000000E+20
 20
1.000000E+20
 30
1.000000E+20
  9
$PEXTMAX
 10
-1.000000E+20
 20
-1.000000E+20
 30
-1.000000E+20
  9
$PLIMMIN
 10
0.0
 20
0.0
  9
$PLIMMAX
 10
12.0
 20
9.0
  9
$UNITMODE
 70
     0
  9
$VISRETAIN
 70
     1
  9
$PLINEGEN
 70
     0
  9
$PSLTSCALE
 70
     0
  9
$TREEDEPTH
 70
  3020
  9
$CMLSTYLE
  2
Standard
  9
$CMLJUST
 70
     0
  9
$CMLSCALE
 40
1.0
  9
$PROXYGRAPHICS
 70
     1
  9
$MEASUREMENT
 70
     0
  9
$CELWEIGHT
370
    -1
  9
$ENDCAPS
280
     0
  9
$JOINSTYLE
280
     0
  9
$LWDISPLAY
290
     1
  9
$INSUNITS
 70
     1
  9
$HYPERLINKBASE
  1

  9
$STYLESHEET
  1

  9
$XEDIT
290
     1
  9
$CEPSNTYPE
380
     0
  9
$PSTYLEMODE
290
     1
  9
$FINGERPRINTGUID
  2
{FDEAD576-A652-11D2-9A35-0060089B3A3F}
  9
$VERSIONGUID
  2
{A257D680-BC79-11D2-9A46-0060089B3A3F}
  9
$EXTNAMES
290
     1
  9
$PSVPSCALE
 40
0.0
  9
$OLESTARTUP
290
     0
  0
ENDSEC
  0
SECTION
  2
CLASSES
  0
CLASS
  1
ACDBDICTIONARYWDFLT
  2
AcDbDictionaryWithDefault
  3
ObjectDBX Classes
 90
        0
280
     0
281
     0
  0
CLASS
  1
ACDBPLACEHOLDER
  2
AcDbPlaceHolder
  3
ObjectDBX Classes
 90
        0
280
     0
281
     0
  0
CLASS
  1
LAYOUT
  2
AcDbLayout
  3
ObjectDBX Classes
 90
        0
280
     0
281
     0
  0
ENDSEC
  0
SECTION
  2
TABLES
  0
TABLE
  2
VPORT
  5
432A
330
0
100
AcDbSymbolTable
 70
     3
  0
VPORT
  5
87
330
432A
100
AcDbSymbolTableRecord
100
AcDbViewportTableRecord
  2
*ACTIVE
 70
     0
 10
0.0
 20
0.0
 11
1.0
 21
1.0
 12
-70162.607125
 22
3110.536125
 13
0.0
 23
0.0
 14
1.0
 24
1.0
 15
1.0
 25
1.0
 16
0.0
 26
0.0
 36
1.0
 17
0.0
 27
0.0
 37
0.0
 40
287.6705
 41
1.577333
 42
50.0
 43
0.0
 44
0.0
 50
0.0
 51
0.0
 71
     0
 72
   100
 73
     1
 74
     2
 75
     0
 76
     1
 77
     0
 78
     1
281
     0
 65
     1
110
0.0
120
0.0
130
0.0
111
1.0
121
0.0
131
0.0
112
0.0
122
1.0
132
0.0
 79
     0
146
0.0
  0
ENDTAB
  0
TABLE
  2
LTYPE
  5
4326
330
0
100
AcDbSymbolTable
 70
     5
  0
LTYPE
  5
4327
330
4326
100
AcDbSymbolTableRecord
100
AcDbLinetypeTableRecord
  2
ByBlock
 70
     0
  3

 72
    65
 73
     0
 40
0.0
  0
LTYPE
  5
4318
330
4326
100
AcDbSymbolTableRecord
100
AcDbLinetypeTableRecord
  2
ByLayer
 70
     0
  3

 72
    65
 73
     0
 40
0.0
  0
LTYPE
  5
4316
330
4326
100
AcDbSymbolTableRecord
100
AcDbLinetypeTableRecord
  2
Continuous
 70
     0
  3
Solid line
 72
    65
 73
     0
 40
0.0
  0
LTYPE
  5
4335
330
4326
100
AcDbSymbolTableRecord
100
AcDbLinetypeTableRecord
  2
DGN Style 3
 70
     0
  3
Dgn Style 3
 72
    65
 73
     2
 40
6.352532
 49
4.537523
 74
     0
 49
-1.815009
 74
     0
  0
LTYPE
  5
4336
330
4326
100
AcDbSymbolTableRecord
100
AcDbLinetypeTableRecord
  2
DGN Style 6
 70
     0
  3
Dgn Style 6
 72
    65
 73
     6
 40
8.630368
 49
0.004538
 74
     0
 49
-1.815009
 74
     0
 49
3.176266
 74
     0
 49
-1.815009
 74
     0
 49
0.004538
 74
     0
 49
-1.815009
 74
     0
  0
LTYPE
  5
433B
330
4326
100
AcDbSymbolTableRecord
100
AcDbLinetypeTableRecord
  2
DGN Style 7
 70
     0
  3
Dgn Style 7
 72
    65
 73
     4
 40
9.075045
 49
4.08377
 74
     0
 49
-1.815009
 74
     0
 49
1.361257
 74
     0
 49
-1.815009
 74
     0
  0
LTYPE
  5
435A
330
4326
100
AcDbSymbolTableRecord
100
AcDbLinetypeTableRecord
  2
DGN Style 1
 70
     0
  3
Dgn Style 1
 72
    65
 73
     2
 40
2.727051
 49
0.004538
 74
     0
 49
-2.722514
 74
     0
  0
ENDTAB
  0
TABLE
  2
LAYER
  5
4324
102
{ACAD_XDICTIONARY
360
4337
102
}
330
0
100
AcDbSymbolTable
 70
    72
  0
LAYER
  5
4314
330
4324
100
AcDbSymbolTableRecord
100
AcDbLayerTableRecord
  2
0
 70
     0
 62
     7
  6
Continuous
370
    -3
390
4315
  0
LAYER
  5
45
330
4324
100
AcDbSymbolTableRecord
100
AcDbLayerTableRecord
  2
Level 1
 70
     0
 62
     7
  6
Continuous
370
     0
390
4315
  0
LAYER
  5
46
330
4324
100
AcDbSymbolTableRecord
100
AcDbLayerTableRecord
  2
Level 2
 70
     0
 62
     6
  6
DGN Style 3
370
    30
390
4315
  0
LAYER
  5
47
330
4324
100
AcDbSymbolTableRecord
100
AcDbLayerTableRecord
  2
Level 3
 70
     0
 62
     7
  6
Continuous
370
     0
390
4315
  0
LAYER
  5
48
330
4324
100
AcDbSymbolTableRecord
100
AcDbLayerTableRecord
  2
Level 4
 70
     0
 62
     7
  6
Continuous
370
     0
390
4315
  0
LAYER
  5
49
330
4324
100
AcDbSymbolTableRecord
100
AcDbLayerTableRecord
  2
Level 5
 70
     0
 62
     7
  6
Continuous
370
     0
390
4315
  0
LAYER
  5
4A
330
4324
100
AcDbSymbolTableRecord
100
AcDbLayerTableRecord
  2
Level 6
 70
     0
 62
     7
  6
Continuous
370
     0
390
4315
  0
LAYER
  5
4B
330
4324
100
AcDbSymbolTableRecord
100
AcDbLayerTableRecord
  2
Level 7
 70
     0
 62
     7
  6
Continuous
370
     0
390
4315
  0
LAYER
  5
4C
330
4324
100
AcDbSymbolTableRecord
100
AcDbLayerTableRecord
  2
Level 8
 70
     0
 62
     7
  6
Continuous
370
     0
390
4315
  0
LAYER
  5
4D
330
4324
100
AcDbSymbolTableRecord
100
AcDbLayerTableRecord
  2
Level 9
 70
     0
 62
     7
  6
Continuous
370
     0
390
4315
  0
LAYER
  5
4E
330
4324
100
AcDbSymbolTableRecord
100
AcDbLayerTableRecord
  2
Level 10
 70
     0
 62
     7
  6
Continuous
370
     0
390
4315
  0
LAYER
  5
4F
330
4324
100
AcDbSymbolTableRecord
100
AcDbLayerTableRecord
  2
Level 11
 70
     0
 62
     7
  6
Continuous
370
     0
390
4315
  0
LAYER
  5
50
330
4324
100
AcDbSymbolTableRecord
100
AcDbLayerTableRecord
  2
Level 12
 70
     0
 62
     7
  6
Continuous
370
     0
390
4315
  0
LAYER
  5
51
330
4324
100
AcDbSymbolTableRecord
100
AcDbLayerTableRecord
  2
Level 13
 70
     0
 62
     7
  6
Continuous
370
     0
390
4315
  0
LAYER
  5
52
330
4324
100
AcDbSymbolTableRecord
100
AcDbLayerTableRecord
  2
Level 14
 70
     0
 62
     7
  6
Continuous
370
     0
390
4315
  0
LAYER
  5
53
330
4324
100
AcDbSymbolTableRecord
100
AcDbLayerTableRecord
  2
Level 15
 70
     0
 62
     7
  6
Continuous
370
     0
390
4315
  0
LAYER
  5
54
330
4324
100
AcDbSymbolTableRecord
100
AcDbLayerTableRecord
  2
Level 16
 70
     0
 62
     7
  6
Continuous
370
     0
390
4315
  0
LAYER
  5
55
330
4324
100
AcDbSymbolTableRecord
100
AcDbLayerTableRecord
  2
Level 17
 70
     0
 62
     7
  6
Continuous
370
     0
390
4315
  0
LAYER
  5
56
330
4324
100
AcDbSymbolTableRecord
100
AcDbLayerTableRecord
  2
Level 18
 70
     0
 62
     7
  6
Continuous
370
     0
390
4315
  0
LAYER
  5
57
330
4324
100
AcDbSymbolTableRecord
100
AcDbLayerTableRecord
  2
Level 19
 70
     0
 62
     7
  6
Continuous
370
     0
390
4315
  0
LAYER
  5
58
330
4324
100
AcDbSymbolTableRecord
100
AcDbLayerTableRecord
  2
Level 20
 70
     0
 62
     7
  6
Continuous
370
     0
390
4315
  0
LAYER
  5
59
330
4324
100
AcDbSymbolTableRecord
100
AcDbLayerTableRecord
  2
Level 21
 70
     0
 62
     7
  6
Continuous
370
     0
390
4315
  0
LAYER
  5
5A
330
4324
100
AcDbSymbolTableRecord
100
AcDbLayerTableRecord
  2
Level 22
 70
     0
 62
     7
  6
Continuous
370
     0
390
4315
  0
LAYER
  5
5B
330
4324
100
AcDbSymbolTableRecord
100
AcDbLayerTableRecord
  2
Level 23
 70
     0
 62
     7
  6
Continuous
370
     0
390
4315
  0
LAYER
  5
5C
330
4324
100
AcDbSymbolTableRecord
100
AcDbLayerTableRecord
  2
Level 24
 70
     0
 62
     7
  6
Continuous
370
     0
390
4315
  0
LAYER
  5
5D
330
4324
100
AcDbSymbolTableRecord
100
AcDbLayerTableRecord
  2
Level 25
 70
     0
 62
     7
  6
Continuous
370
     0
390
4315
  0
LAYER
  5
5E
330
4324
100
AcDbSymbolTableRecord
100
AcDbLayerTableRecord
  2
Level 26
 70
     0
 62
     7
  6
Continuous
370
     0
390
4315
  0
LAYER
  5
5F
330
4324
100
AcDbSymbolTableRecord
100
AcDbLayerTableRecord
  2
Level 27
 70
     0
 62
     7
  6
Continuous
370
     0
390
4315
  0
LAYER
  5
60
330
4324
100
AcDbSymbolTableRecord
100
AcDbLayerTableRecord
  2
Level 28
 70
     0
 62
     7
  6
Continuous
370
     0
390
4315
  0
LAYER
  5
61
330
4324
100
AcDbSymbolTableRecord
100
AcDbLayerTableRecord
  2
Level 29
 70
     0
 62
     7
  6
Continuous
370
     0
390
4315
  0
LAYER
  5
62
330
4324
100
AcDbSymbolTableRecord
100
AcDbLayerTableRecord
  2
Level 30
 70
     0
 62
     7
  6
Continuous
370
     0
390
4315
  0
LAYER
  5
63
330
4324
100
AcDbSymbolTableRecord
100
AcDbLayerTableRecord
  2
Level 31
 70
     0
 62
     7
  6
Continuous
370
     0
390
4315
  0
LAYER
  5
64
330
4324
100
AcDbSymbolTableRecord
100
AcDbLayerTableRecord
  2
Level 32
 70
     0
 62
     7
  6
Continuous
370
     0
390
4315
  0
LAYER
  5
65
330
4324
100
AcDbSymbolTableRecord
100
AcDbLayerTableRecord
  2
Level 33
 70
     0
 62
     7
  6
Continuous
370
     0
390
4315
  0
LAYER
  5
66
330
4324
100
AcDbSymbolTableRecord
100
AcDbLayerTableRecord
  2
Level 34
 70
     0
 62
     7
  6
Continuous
370
     0
390
4315
  0
LAYER
  5
67
330
4324
100
AcDbSymbolTableRecord
100
AcDbLayerTableRecord
  2
Level 35
 70
     0
 62
     7
  6
Continuous
370
     0
390
4315
  0
LAYER
  5
68
330
4324
100
AcDbSymbolTableRecord
100
AcDbLayerTableRecord
  2
Level 36
 70
     0
 62
     7
  6
Continuous
370
     0
390
4315
  0
LAYER
  5
69
330
4324
100
AcDbSymbolTableRecord
100
AcDbLayerTableRecord
  2
Level 37
 70
     0
 62
     7
  6
Continuous
370
     0
390
4315
  0
LAYER
  5
6A
330
4324
100
AcDbSymbolTableRecord
100
AcDbLayerTableRecord
  2
Level 38
 70
     0
 62
     7
  6
Continuous
370
     0
390
4315
  0
LAYER
  5
6B
330
4324
100
AcDbSymbolTableRecord
100
AcDbLayerTableRecord
  2
Level 39
 70
     0
 62
     7
  6
Continuous
370
     0
390
4315
  0
LAYER
  5
6C
330
4324
100
AcDbSymbolTableRecord
100
AcDbLayerTableRecord
  2
Level 40
 70
     0
 62
     7
  6
Continuous
370
     0
390
4315
  0
LAYER
  5
6D
330
4324
100
AcDbSymbolTableRecord
100
AcDbLayerTableRecord
  2
Level 41
 70
     0
 62
     7
  6
Continuous
370
     0
390
4315
  0
LAYER
  5
6E
330
4324
100
AcDbSymbolTableRecord
100
AcDbLayerTableRecord
  2
Level 42
 70
     0
 62
     7
  6
Continuous
370
     0
390
4315
  0
LAYER
  5
6F
330
4324
100
AcDbSymbolTableRecord
100
AcDbLayerTableRecord
  2
Level 43
 70
     0
 62
     7
  6
Continuous
370
     0
390
4315
  0
LAYER
  5
70
330
4324
100
AcDbSymbolTableRecord
100
AcDbLayerTableRecord
  2
Level 44
 70
     0
 62
     7
  6
Continuous
370
     0
390
4315
  0
LAYER
  5
71
330
4324
100
AcDbSymbolTableRecord
100
AcDbLayerTableRecord
  2
Level 45
 70
     0
 62
     7
  6
Continuous
370
     0
390
4315
  0
LAYER
  5
72
330
4324
100
AcDbSymbolTableRecord
100
AcDbLayerTableRecord
  2
Level 46
 70
     0
 62
     7
  6
Continuous
370
     0
390
4315
  0
LAYER
  5
73
330
4324
100
AcDbSymbolTableRecord
100
AcDbLayerTableRecord
  2
Level 47
 70
     0
 62
     7
  6
Continuous
370
     0
390
4315
  0
LAYER
  5
74
330
4324
100
AcDbSymbolTableRecord
100
AcDbLayerTableRecord
  2
Level 48
 70
     0
 62
     7
  6
Continuous
370
     0
390
4315
  0
LAYER
  5
75
330
4324
100
AcDbSymbolTableRecord
100
AcDbLayerTableRecord
  2
Level 49
 70
     0
 62
     7
  6
Continuous
370
     0
390
4315
  0
LAYER
  5
76
330
4324
100
AcDbSymbolTableRecord
100
AcDbLayerTableRecord
  2
Level 50
 70
     0
 62
     7
  6
Continuous
370
     0
390
4315
  0
LAYER
  5
77
330
4324
100
AcDbSymbolTableRecord
100
AcDbLayerTableRecord
  2
Level 51
 70
     0
 62
     7
  6
Continuous
370
     0
390
4315
  0
LAYER
  5
78
330
4324
100
AcDbSymbolTableRecord
100
AcDbLayerTableRecord
  2
Level 52
 70
     0
 62
     7
  6
Continuous
370
     0
390
4315
  0
LAYER
  5
79
330
4324
100
AcDbSymbolTableRecord
100
AcDbLayerTableRecord
  2
Level 53
 70
     0
 62
     7
  6
Continuous
370
     0
390
4315
  0
LAYER
  5
7A
330
4324
100
AcDbSymbolTableRecord
100
AcDbLayerTableRecord
  2
Level 54
 70
     0
 62
     7
  6
Continuous
370
     0
390
4315
  0
LAYER
  5
7B
330
4324
100
AcDbSymbolTableRecord
100
AcDbLayerTableRecord
  2
Level 55
 70
     0
 62
     7
  6
Continuous
370
     0
390
4315
  0
LAYER
  5
7C
330
4324
100
AcDbSymbolTableRecord
100
AcDbLayerTableRecord
  2
Level 56
 70
     0
 62
     7
  6
Continuous
370
     0
390
4315
  0
LAYER
  5
7D
330
4324
100
AcDbSymbolTableRecord
100
AcDbLayerTableRecord
  2
Level 57
 70
     0
 62
     7
  6
Continuous
370
     0
390
4315
  0
LAYER
  5
7E
330
4324
100
AcDbSymbolTableRecord
100
AcDbLayerTableRecord
  2
Level 58
 70
     0
 62
     7
  6
Continuous
370
     0
390
4315
  0
LAYER
  5
7F
330
4324
100
AcDbSymbolTableRecord
100
AcDbLayerTableRecord
  2
Level 59
 70
     0
 62
     7
  6
Continuous
370
     0
390
4315
  0
LAYER
  5
80
330
4324
100
AcDbSymbolTableRecord
100
AcDbLayerTableRecord
  2
Level 60
 70
     0
 62
     7
  6
Continuous
370
     0
390
4315
  0
LAYER
  5
81
330
4324
100
AcDbSymbolTableRecord
100
AcDbLayerTableRecord
  2
Level 61
 70
     0
 62
     7
  6
Continuous
370
     0
390
4315
  0
LAYER
  5
82
330
4324
100
AcDbSymbolTableRecord
100
AcDbLayerTableRecord
  2
Level 62
 70
     0
 62
     7
  6
Continuous
370
     0
390
4315
  0
LAYER
  5
83
330
4324
100
AcDbSymbolTableRecord
100
AcDbLayerTableRecord
  2
Level 63
 70
     0
 62
     7
  6
Continuous
370
     0
390
4315
  0
LAYER
  5
E39
330
4324
100
AcDbSymbolTableRecord
100
AcDbLayerTableRecord
  2
REBAR
 70
     0
 62
     5
  6
Continuous
370
    53
390
4315
  0
LAYER
  5
E3A
330
4324
100
AcDbSymbolTableRecord
100
AcDbLayerTableRecord
  2
STRUCTURES TEXT
 70
     0
 62
     1
  6
Continuous
370
    30
390
4315
  0
LAYER
  5
E3E
330
4324
100
AcDbSymbolTableRecord
100
AcDbLayerTableRecord
  2
CONSTRUCTION LINE
 70
     0
 62
     7
  6
DGN Style 6
370
    40
390
4315
  0
LAYER
  5
E3F
330
4324
100
AcDbSymbolTableRecord
100
AcDbLayerTableRecord
  2
Text
 70
     0
 62
     1
  6
Continuous
370
    30
390
4315
  0
LAYER
  5
E40
330
4324
100
AcDbSymbolTableRecord
100
AcDbLayerTableRecord
  2
Contour Line
 70
     0
 62
     7
  6
Continuous
370
   106
390
4315
  0
LAYER
  5
3F01
330
4324
100
AcDbSymbolTableRecord
100
AcDbLayerTableRecord
  2
SIDEWALK
 70
     0
 62
    92
  6
Continuous
370
    40
390
4315
  0
LAYER
  5
3F60
330
4324
100
AcDbSymbolTableRecord
100
AcDbLayerTableRecord
  2
CURBLINE
 70
     0
 62
    92
  6
Continuous
370
    40
390
4315
  0
LAYER
  5
434A
330
4324
100
AcDbSymbolTableRecord
100
AcDbLayerTableRecord
  2
Defpoints
 70
     0
 62
     7
  6
Continuous
290
     0
370
    -3
390
4315
  0
ENDTAB
  0
TABLE
  2
STYLE
  5
4325
330
0
100
AcDbSymbolTable
 70
    21
  0
STYLE
  5
4317
330
4325
100
AcDbSymbolTableRecord
100
AcDbTextStyleTableRecord
  2
Standard
 70
     0
 40
0.0
 41
1.0
 50
0.0
 71
     0
 42
1.3125
  3
txt
  4

  0
STYLE
  5
E3C
330
4325
100
AcDbSymbolTableRecord
100
AcDbTextStyleTableRecord
  2
Style 2 - FS Sheet
 70
     0
 40
0.1
 41
1.0
 50
0.0
 71
     0
 42
0.2
  3
gen_eng.shx
  4

  0
STYLE
  5
E3D
330
4325
100
AcDbSymbolTableRecord
100
AcDbTextStyleTableRecord
  2
Style 1
 70
     0
 40
2.3
 41
1.0
 50
0.0
 71
     0
 42
0.2
  3
gen_eng.shx
  4

  0
STYLE
  5
25F3
330
4325
100
AcDbSymbolTableRecord
100
AcDbTextStyleTableRecord
  2
STD SHEET
 70
     0
 40
1.125
 41
1.0
 50
0.0
 71
     0
 42
0.2
  3
gen_eng.shx
  4

  0
STYLE
  5
3384
330
4325
100
AcDbSymbolTableRecord
100
AcDbTextStyleTableRecord
  2
LABELS
 70
     0
 40
1.9375
 41
1.0
 50
0.0
 71
     0
 42
0.2
  3
gen_eng.shx
  4

  0
STYLE
  5
38E5
330
4325
100
AcDbSymbolTableRecord
100
AcDbTextStyleTableRecord
  2
CLASS III DESIGN
 70
     0
 40
1.68
 41
1.0
 50
0.0
 71
     0
 42
0.2
  3
straight_squash.shx
  4

  0
STYLE
  5
38E6
330
4325
100
AcDbSymbolTableRecord
100
AcDbTextStyleTableRecord
  2
CLASS III EXISTING
 70
     0
 40
1.68
 41
1.0
 50
0.0
 71
     0
 42
0.2
  3
slant_squash.shx
  4

  0
STYLE
  5
38E7
330
4325
100
AcDbSymbolTableRecord
100
AcDbTextStyleTableRecord
  2
CLASS IV DESIGN
 70
     0
 40
1.2
 41
1.0
 50
0.0
 71
     0
 42
0.2
  3
straight_squash.shx
  4

  0
STYLE
  5
38E8
330
4325
100
AcDbSymbolTableRecord
100
AcDbTextStyleTableRecord
  2
CLASS IV EXISTING
 70
     0
 40
1.2
 41
1.0
 50
0.0
 71
     0
 42
0.2
  3
slant_squash.shx
  4

  0
STYLE
  5
38E9
330
4325
100
AcDbSymbolTableRecord
100
AcDbTextStyleTableRecord
  2
CLASS I DESIGN
 70
     0
 40
2.64
 41
1.0
 50
0.0
 71
     0
 42
0.2
  3
straight_squash.shx
  4

  0
STYLE
  5
38EA
330
4325
100
AcDbSymbolTableRecord
100
AcDbTextStyleTableRecord
  2
CLASS I EXISTING
 70
     0
 40
2.64
 41
1.0
 50
0.0
 71
     0
 42
0.2
  3
slant_squash.shx
  4

  0
STYLE
  5
38EB
330
4325
100
AcDbSymbolTableRecord
100
AcDbTextStyleTableRecord
  2
CLASS II DESIGN
 70
     0
 40
2.16
 41
1.0
 50
0.0
 71
     0
 42
0.2
  3
straight_squash.shx
  4

  0
STYLE
  5
38EC
330
4325
100
AcDbSymbolTableRecord
100
AcDbTextStyleTableRecord
  2
CLASS II EXISTING
 70
     0
 40
2.16
 41
1.0
 50
0.0
 71
     0
 42
0.2
  3
slant_squash.shx
  4

  0
STYLE
  5
4339
330
4325
100
AcDbSymbolTableRecord
100
AcDbTextStyleTableRecord
  2
Style-straight_squash
 70
     0
 40
0.0
 41
1.0
 50
0.0
 71
     0
 42
0.2
  3
straight_squash.shx
  4

  0
STYLE
  5
4358
330
4325
100
AcDbSymbolTableRecord
100
AcDbTextStyleTableRecord
  2
Style-SWISS_722_BOLD
 70
     0
 40
0.0
 41
1.0
 50
0.0
 71
     0
 42
0.2
  3
SWISS_722_BOLD.shx
  4

  0
STYLE
  5
4359
330
4325
100
AcDbSymbolTableRecord
100
AcDbTextStyleTableRecord
  2
Style-RIBBON_131
 70
     0
 40
0.0
 41
1.0
 50
0.0
 71
     0
 42
0.2
  3
RIBBON_131.shx
  4

  0
STYLE
  5
435B
330
4325
100
AcDbSymbolTableRecord
100
AcDbTextStyleTableRecord
  2
Style-SWISS_722
 70
     0
 40
0.0
 41
1.0
 50
0.0
 71
     0
 42
0.2
  3
SWISS_722.shx
  4

  0
STYLE
  5
435C
330
4325
100
AcDbSymbolTableRecord
100
AcDbTextStyleTableRecord
  2
Style-USTN_WORKING
 70
     0
 40
0.0
 41
1.0
 50
0.0
 71
     0
 42
0.2
  3
USTN_WORKING.shx
  4

  0
STYLE
  5
435D
330
4325
100
AcDbSymbolTableRecord
100
AcDbTextStyleTableRecord
  2
Style-gen_eng
 70
     0
 40
0.0
 41
1.0
 50
0.0
 71
     0
 42
0.2
  3
gen_eng.shx
  4

  0
STYLE
  5
435E
330
4325
100
AcDbSymbolTableRecord
100
AcDbTextStyleTableRecord
  2
Style-SWISS_722 I 0.17453
 70
     0
 40
0.0
 41
1.0
 50
10.000004
 71
     0
 42
0.2
  3
SWISS_722.shx
  4

  0
STYLE
  5
4362
330
4325
100
AcDbSymbolTableRecord
100
AcDbTextStyleTableRecord
  2
Style-ITALIC_WORKING
 70
     0
 40
0.0
 41
1.0
 50
0.0
 71
     0
 42
0.2
  3
ITALIC_WORKING.shx
  4

  0
ENDTAB
  0
TABLE
  2
VIEW
  5
4328
330
0
100
AcDbSymbolTable
 70
     1
  0
VIEW
  5
97
330
4328
100
AcDbSymbolTableRecord
100
AcDbViewTableRecord
  2
PRINT
 70
     0
 40
896.21
 10
21.10875
 20
2592.77775
 41
1274.9895
 11
0.0
 21
0.0
 31
1.0
 12
0.0
 22
0.0
 32
0.0
 42
50.0
 43
0.0
 44
0.0
 50
0.0
 71
     0
281
     0
 72
     0
  0
ENDTAB
  0
TABLE
  2
UCS
  5
4329
330
0
100
AcDbSymbolTable
 70
     0
  0
ENDTAB
  0
TABLE
  2
APPID
  5
432B
330
0
100
AcDbSymbolTable
 70
     1
  0
APPID
  5
4333
330
432B
100
AcDbSymbolTableRecord
100
AcDbRegAppTableRecord
  2
ACAD
 70
     0
  0
ENDTAB
  0
TABLE
  2
DIMSTYLE
  5
432C
330
0
100
AcDbSymbolTable
 70
     2
100
AcDbDimStyleTable
  0
DIMSTYLE
105
4319
330
432C
100
AcDbSymbolTableRecord
100
AcDbDimStyleTableRecord
  2
Standard
 70
     0
340
4317
  0
DIMSTYLE
105
3C4A
102
{ACAD_REACTORS
330
366E
102
}
330
432C
100
AcDbSymbolTableRecord
100
AcDbDimStyleTableRecord
  2
Tim
 70
     0
 41
1.3125
 42
0.65625
 43
0.0
 44
0.65625
 73
     0
 74
     0
 77
     1
 78
    15
 79
     3
140
1.3125
143
25.4
147
0.65625
172
     1
176
     2
177
     2
178
     1
179
     2
277
     4
279
     2
283
     0
284
    15
285
    15
286
    15
288
     1
340
4339
371
    30
372
    30
  0
ENDTAB
  0
TABLE
  2
BLOCK_RECORD
  5
431B
330
0
100
AcDbSymbolTable
 70
     6
  0
BLOCK_RECORD
  5
431C
330
431B
100
AcDbSymbolTableRecord
100
AcDbBlockTableRecord
  2
*Model_Space
340
431F
  0
BLOCK_RECORD
  5
4320
330
431B
100
AcDbSymbolTableRecord
100
AcDbBlockTableRecord
  2
*Paper_Space
340
4323
  0
BLOCK_RECORD
  5
433C
330
431B
100
AcDbSymbolTableRecord
100
AcDbBlockTableRecord
  2
_None
340
0
  0
BLOCK_RECORD
  5
433F
330
431B
100
AcDbSymbolTableRecord
100
AcDbBlockTableRecord
  2
*D1
340
0
  0
BLOCK_RECORD
  5
434F
330
431B
100
AcDbSymbolTableRecord
100
AcDbBlockTableRecord
  2
*U2
340
0
102
{BLKREFS
331
3CCF
102
}
  0
BLOCK_RECORD
  5
4352
330
431B
100
AcDbSymbolTableRecord
100
AcDbBlockTableRecord
  2
AB BARS-TOP PLAN
340
0
102
{BLKREFS
331
3D96
331
3D9A
331
3D9E
331
3DA2
102
}
  0
BLOCK_RECORD
  5
4355
330
431B
100
AcDbSymbolTableRecord
100
AcDbBlockTableRecord
  2
AB BARS-TOP PLAN_1
340
0
102
{BLKREFS
331
3DA6
331
3DAA
331
3DAE
331
3DB2
102
}
  0
BLOCK_RECORD
  5
435F
330
431B
100
AcDbSymbolTableRecord
100
AcDbBlockTableRecord
  2
Greg's Signature
340
0
102
{BLKREFS
331
430B
102
}
  0
ENDTAB
  0
ENDSEC
  0
SECTION
  2
BLOCKS
  0
BLOCK
  5
431D
330
431C
100
AcDbEntity
  8
0
100
AcDbBlockBegin
  2
*Model_Space
 70
     0
 71
     0
 10
0.0
 20
0.0
 30
0.0
  3
*Model_Space
  1

  0
ENDBLK
  5
431E
330
431C
100
AcDbEntity
  8
0
100
AcDbBlockEnd
  0
BLOCK
  5
4321
330
4320
100
AcDbEntity
 67
     1
  8
0
100
AcDbBlockBegin
  2
*Paper_Space
 70
     0
 71
     0
 10
0.0
 20
0.0
 30
0.0
  3
*Paper_Space
  1

  0
ENDBLK
  5
4322
330
4320
100
AcDbEntity
 67
     1
  8
0
100
AcDbBlockEnd
  0
BLOCK
  5
433D
330
433C
100
AcDbEntity
  8
0
100
AcDbBlockBegin
  2
_None
 70
     0
 71
     0
 10
0.0
 20
0.0
 30
0.0
  3
_None
  1

  0
ENDBLK
  5
433E
330
433C
100
AcDbEntity
  8
0
100
AcDbBlockEnd
  0
BLOCK
  5
4348
330
433F
100
AcDbEntity
  8
0
100
AcDbBlockBegin
  2
*D1
 70
     1
 71
     0
 10
0.0
 20
0.0
 30
0.0
  3
*D1
  1

  0
TEXT
  5
4340
330
433F
100
AcDbEntity
  8
Level 3
  6
Continuous
 62
     1
370
    30
100
AcDbText
 10
-70301.980317
 20
3234.68585
 30
0.0
 40
1.3125
  1
1" 
  7
Style-straight_squash
 11
-70301.980317
 21
3235.3421
 31
0.0
100
AcDbText
 73
     2
  0
LINE
  5
4341
330
433F
100
AcDbEntity
  8
Level 3
  6
Continuous
 62
     2
370
    30
100
AcDbLine
 10
-70301.980317
 20
3234.0296
 30
0.0
 11
-70297.920851
 21
3234.0296
 31
0.0
  0
LINE
  5
4342
330
433F
100
AcDbEntity
  8
Level 3
  6
Continuous
 62
     2
370
    30
100
AcDbLine
 10
-70297.920851
 20
3234.0296
 30
0.0
 11
-70296.920851
 21
3234.0296
 31
0.0
  0
LINE
  5
4343
330
433F
100
AcDbEntity
  8
Level 3
  6
Continuous
 62
     2
370
    30
100
AcDbLine
 10
-70295.608351
 20
3234.0296
 30
0.0
 11
-70296.920851
 21
3234.0296
 31
0.0
  0
SOLID
  5
4344
330
433F
100
AcDbEntity
  8
Level 3
  6
Continuous
 62
     2
370
    30
100
AcDbTrace
 10
70299.233351
 20
3234.357725
 30
0.0
 11
70297.920851
 21
3234.0296
 31
0.0
 12
70299.233351
 22
3233.701475
 32
0.0
 13
70299.233351
 23
3233.701475
 33
0.0
210
0.0
220
0.0
230
-1.0
  0
SOLID
  5
4345
330
433F
100
AcDbEntity
  8
Level 3
  6
Continuous
 62
     2
370
    30
100
AcDbTrace
 10
-70295.608351
 20
3233.701475
 30
0.0
 11
-70296.920851
 21
3234.0296
 31
0.0
 12
-70295.608351
 22
3234.357725
 32
0.0
 13
-70295.608351
 23
3234.357725
 33
0.0
  0
LINE
  5
4346
330
433F
100
AcDbEntity
  8
Level 3
  6
Continuous
 62
     2
370
    30
100
AcDbLine
 10
-70297.920851
 20
3222.347354
 30
0.0
 11
-70297.920851
 21
3234.68585
 31
0.0
  0
LINE
  5
4347
330
433F
100
AcDbEntity
  8
Level 3
  6
Continuous
 62
     2
370
    30
100
AcDbLine
 10
-70296.920851
 20
3231.931849
 30
0.0
 11
-70296.920851
 21
3234.68585
 31
0.0
  0
POINT
  5
434B
330
433F
100
AcDbEntity
  8
Defpoints
100
AcDbPoint
 10
-70296.920851
 20
3234.0296
 30
0.0
  0
POINT
  5
434C
330
433F
100
AcDbEntity
  8
Defpoints
100
AcDbPoint
 10
-70297.920851
 20
3221.691104
 30
0.0
  0
POINT
  5
434D
330
433F
100
AcDbEntity
  8
Defpoints
100
AcDbPoint
 10
-70296.920851
 20
3231.275599
 30
0.0
  0
POINT
  5
434E
330
433F
100
AcDbEntity
  8
Defpoints
100
AcDbPoint
 10
-70300.710194
 20
3234.0296
 30
0.0
  0
ENDBLK
  5
4349
330
433F
100
AcDbEntity
  8
0
100
AcDbBlockEnd
  0
BLOCK
  5
4350
330
434F
100
AcDbEntity
  8
0
100
AcDbBlockBegin
  2
*U2
 70
     1
 71
     0
 10
0.0
 20
0.0
 30
0.0
  3
*U2
  1

  0
LINE
  5
3C94
330
434F
100
AcDbEntity
  8
REBAR
 62
    30
370
    53
100
AcDbLine
 10
38.089233
 20
22.875033
 30
0.0
 11
-36.401706
 21
22.875033
 31
0.0
  0
ARC
  5
3C96
330
434F
100
AcDbEntity
  8
REBAR
 62
    30
370
    53
100
AcDbCircle
 10
-36.401706
 20
21.187533
 30
0.0
 40
1.6875
100
AcDbArc
 50
90.0
 51
210.0
  0
LINE
  5
3C9A
330
434F
100
AcDbEntity
  8
REBAR
 62
    30
370
    53
100
AcDbLine
 10
38.089233
 20
22.125033
 30
0.0
 11
-36.401706
 21
22.125033
 31
0.0
  0
ARC
  5
3C9C
330
434F
100
AcDbEntity
  8
REBAR
 62
    30
370
    53
100
AcDbCircle
 10
-36.401706
 20
21.187533
 30
0.0
 40
0.9375
100
AcDbArc
 50
90.0
 51
210.0
  0
LINE
  5
3C9D
330
434F
100
AcDbEntity
  8
REBAR
 62
    30
370
    53
100
AcDbLine
 10
38.089233
 20
22.875033
 30
0.0
 11
38.089233
 21
22.125033
 31
0.0
  0
LINE
  5
3C99
330
434F
100
AcDbEntity
  8
REBAR
 62
    30
370
    53
100
AcDbLine
 10
-12.748387
 20
-21.656217
 30
0.0
 11
-37.213605
 21
20.718783
 31
0.0
  0
LINE
  5
3C95
330
434F
100
AcDbEntity
  8
REBAR
 62
    30
370
    53
100
AcDbLine
 10
-13.397907
 20
-22.031217
 30
0.0
 11
-37.863124
 21
20.343783
 31
0.0
  0
LINE
  5
3C93
330
434F
100
AcDbEntity
  8
REBAR
 62
    30
370
    53
100
AcDbLine
 10
38.089233
 20
-22.874967
 30
0.0
 11
-11.936489
 21
-22.874967
 31
0.0
  0
ARC
  5
3C97
330
434F
100
AcDbEntity
  8
REBAR
 62
    30
370
    53
100
AcDbCircle
 10
-11.936489
 20
-21.187467
 30
0.0
 40
1.6875
100
AcDbArc
 50
210.0
 51
270.0
  0
LINE
  5
3C98
330
434F
100
AcDbEntity
  8
REBAR
 62
    30
370
    53
100
AcDbLine
 10
38.089233
 20
-22.124967
 30
0.0
 11
-11.936489
 21
-22.124967
 31
0.0
  0
ARC
  5
3C9B
330
434F
100
AcDbEntity
  8
REBAR
 62
    30
370
    53
100
AcDbCircle
 10
-11.936489
 20
-21.187467
 30
0.0
 40
0.9375000000000001
100
AcDbArc
 50
210.0
 51
270.0
  0
LINE
  5
3C9E
330
434F
100
AcDbEntity
  8
REBAR
 62
    30
370
    53
100
AcDbLine
 10
38.089233
 20
-22.124967
 30
0.0
 11
38.089233
 21
-22.874967
 31
0.0
  0
ENDBLK
  5
4351
330
434F
100
AcDbEntity
  8
0
100
AcDbBlockEnd
  0
BLOCK
  5
4353
330
4352
100
AcDbEntity
  8
0
100
AcDbBlockBegin
  2
AB BARS-TOP PLAN
 70
     0
 71
     0
 10
0.0
 20
0.0
 30
0.0
  3
AB BARS-TOP PLAN
  1

  0
HATCH
  5
3D97
330
4352
100
AcDbEntity
  8
STRUCTURES TEXT
  6
Continuous
 62
   150
370
    30
100
AcDbHatch
 10
0.0
 20
0.0
 30
0.0
210
0.0
220
0.0
230
0.6666666666666666
  2
SOLID
 70
     1
 71
     0
 91
        1
 92
        1
 93
        1
 72
     2
 10
0.0
 20
-0.2499999999997726
 40
0.25
 50
0.0
 51
360.0
 73
     1
 97
        0
 75
     0
 76
     1
 98
        0
  0
LINE
  5
3D98
330
4352
100
AcDbEntity
  8
STRUCTURES TEXT
  6
Continuous
 62
   150
370
   106
100
AcDbLine
 10
0.0
 20
-0.5
 30
0.0
 11
0.0
 21
-2.5
 31
0.0
  0
CIRCLE
  5
3D99
330
4352
100
AcDbEntity
  8
STRUCTURES TEXT
  6
Continuous
 62
   150
370
    30
100
AcDbCircle
 10
0.0
 20
-2.756277
 30
0.0
 40
0.25
  0
ENDBLK
  5
4354
330
4352
100
AcDbEntity
  8
0
100
AcDbBlockEnd
  0
BLOCK
  5
4356
330
4355
100
AcDbEntity
  8
0
100
AcDbBlockBegin
  2
AB BARS-TOP PLAN_1
 70
     0
 71
     0
 10
0.0
 20
0.0
 30
0.0
  3
AB BARS-TOP PLAN_1
  1

  0
HATCH
  5
3DA7
330
4355
100
AcDbEntity
  8
STRUCTURES TEXT
  6
Continuous
 62
   150
370
    30
100
AcDbHatch
 10
0.0
 20
0.0
 30
0.0
210
0.0
220
0.0
230
0.6666666666666666
  2
SOLID
 70
     1
 71
     0
 91
        1
 92
        1
 93
        1
 72
     2
 10
0.000000000007276
 20
-0.25
 40
0.25
 50
0.0
 51
360.0
 73
     1
 97
        0
 75
     0
 76
     1
 98
        0
  0
LINE
  5
3DA8
330
4355
100
AcDbEntity
  8
STRUCTURES TEXT
  6
Continuous
 62
   150
370
   106
100
AcDbLine
 10
0.0
 20
-0.5
 30
0.0
 11
0.0
 21
-2.5
 31
0.0
  0
CIRCLE
  5
3DA9
330
4355
100
AcDbEntity
  8
STRUCTURES TEXT
  6
Continuous
 62
   150
370
    30
100
AcDbCircle
 10
0.0
 20
-2.756277
 30
0.0
 40
0.25
  0
ENDBLK
  5
4357
330
4355
100
AcDbEntity
  8
0
100
AcDbBlockEnd
  0
BLOCK
  5
4360
330
435F
100
AcDbEntity
  8
0
100
AcDbBlockBegin
  2
Greg's Signature
 70
     0
 71
     0
 10
0.0
 20
0.0
 30
0.0
  3
Greg's Signature
  1

  0
LWPOLYLINE
  5
430C
330
435F
100
AcDbEntity
  8
Level 1
370
    30
100
AcDbPolyline
 90
       49
 70
   128
 43
0.0
 10
-47.135056
 20
-3.778788
 10
-46.004572
 20
-3.967202
 10
-45.27734
 20
-3.61223
 10
-44.308844
 20
-3.025132
 10
-43.555188
 20
-2.271475
 10
-42.613117
 20
-1.706233
 10
-41.765253
 20
-0.858369
 10
-41.294218
 20
0.272116
 10
-40.634769
 20
1.119979
 10
-39.786905
 20
1.873636
 10
-39.127455
 20
2.815707
 10
-38.65642
 20
3.851984
 10
-38.468006
 20
5.076676
 10
-38.279592
 20
6.207161
 10
-38.185385
 20
7.337646
 10
-38.844834
 20
8.468131
 10
-39.881112
 20
8.468131
 10
-40.446354
 20
7.620267
 10
-40.634769
 20
6.583989
 10
-40.634769
 20
5.453505
 10
-39.881112
 20
4.699848
 10
-39.221663
 20
3.757777
 10
-38.279592
 20
3.192535
 10
-37.0549
 20
3.098328
 10
-36.018622
 20
3.286742
 10
-35.359173
 20
4.134606
 10
-34.699723
 20
5.170883
 10
-34.134481
 20
4.794055
 10
-34.322895
 20
3.757777
 10
-34.040274
 20
2.7215
 10
-33.663445
 20
1.779429
 10
-33.286617
 20
0.837358
 10
-33.098203
 20
-0.293127
 10
-32.909789
 20
-1.423612
 10
-32.909789
 20
-2.554096
 10
-33.569238
 20
-3.778788
 10
-34.322895
 20
-4.532445
 10
-35.547587
 20
-4.532445
 10
-36.489657
 20
-4.273375
 10
-37.620142
 20
-3.967202
 10
-38.562213
 20
-3.40196
 10
-39.504284
 20
-3.161449
 10
-40.540562
 20
-2.648303
 10
-41.576839
 20
-2.271475
 10
-42.424703
 20
-1.706233
 10
-43.366774
 20
-1.329404
 10
-44.308844
 20
-0.952576
 10
-45.156708
 20
-0.387334
 10
-46.098779
 20
-0.19892
  0
LWPOLYLINE
  5
430D
330
435F
100
AcDbEntity
  8
Level 1
370
    30
100
AcDbPolyline
 90
       96
 70
   128
 43
0.0
 10
-31.378924
 20
-6.322379
 10
-31.096303
 20
-5.238998
 10
-30.954992
 20
-4.20272
 10
-30.813682
 20
-3.166442
 10
-30.625267
 20
-2.130165
 10
-30.248439
 20
-1.093887
 10
-29.636093
 20
-0.246023
 10
-28.835333
 20
-0.858369
 10
-28.364298
 20
-2.271475
 10
-28.175884
 20
-3.307753
 10
-27.516434
 20
-4.06141
 10
-26.150432
 20
-4.579548
 10
-25.396775
 20
-3.872995
 10
-24.737325
 20
-3.025132
 10
-24.12498
 20
-2.224372
 10
-23.795255
 20
-1.235197
 10
-23.418427
 20
-0.246023
 10
-23.559737
 20
0.790255
 10
-24.92574
 20
0.978669
 10
-24.92574
 20
-0.057609
 10
-24.92574
 20
-1.093887
 10
-24.784429
 20
-2.130165
 10
-24.407601
 20
-3.119339
 10
-23.230012
 20
-3.213546
 10
-22.570563
 20
-2.459889
 10
-22.240838
 20
-1.423612
 10
-21.298767
 20
-0.99968
 10
-20.26249
 20
-0.99968
 10
-19.084901
 20
-1.894647
 10
-19.414626
 20
-3.213546
 10
-20.450904
 20
-3.307753
 10
-21.016146
 20
-2.459889
 10
-20.969043
 20
-1.376508
 10
-20.639318
 20
-0.34023
 10
-19.744351
 20
0.130805
 10
-18.708073
 20
0.319219
 10
-17.860209
 20
-0.905473
 10
-17.577588
 20
-1.94175
 10
-17.294967
 20
-2.930925
 10
-16.965242
 20
-3.920099
 10
-16.823932
 20
-4.956377
 10
-16.823932
 20
-6.039758
 10
-17.577588
 20
-7.311553
 10
-18.378348
 20
-7.971003
 10
-19.273315
 20
-8.536245
 10
-20.309593
 20
-8.583349
 10
-20.733525
 20
-7.170243
 10
-20.450904
 20
-6.181069
 10
-19.791454
 20
-5.427412
 10
-19.064435
 20
-4.889443
 10
-18.284141
 20
-4.249824
 10
-17.012346
 20
-3.496167
 10
-15.976068
 20
-2.412786
 10
-15.615961
 20
-1.564922
 10
-14.892687
 20
-0.622851
 10
-14.280341
 20
0.177909
 10
-12.914338
 20
-0.104713
 10
-12.678821
 20
-1.14099
 10
-12.678821
 20
-2.177268
 10
-13.055649
 20
-3.166442
 10
-13.856409
 20
-3.778788
 10
-14.845583
 20
-4.108513
 10
-15.74055
 20
-3.637478
 10
-15.928964
 20
-2.648303
 10
-15.693447
 20
-1.659129
 10
-15.081101
 20
-0.811266
 10
-14.13903
 20
-0.434437
 10
-12.773028
 20
-1.046783
 10
-11.407025
 20
-1.517819
 10
-10.229437
 20
-0.764162
 10
-9.617091
 20
0.036598
 10
-9.098952
 20
0.978669
 10
-8.722124
 20
2.014947
 10
-8.722124
 20
1.496808
 10
-8.816331
 20
0.46053
 10
-8.392399
 20
-0.481541
 10
-7.167707
 20
-0.151816
 10
-6.508257
 20
0.648944
 10
-6.41405
 20
0.60184
 10
-6.555361
 20
-0.434437
 10
-5.990119
 20
-1.376508
 10
-5.236462
 20
-2.083061
 10
-5.189358
 20
-3.119339
 10
-5.189358
 20
-4.155617
 10
-5.754601
 20
-5.00348
 10
-6.508257
 20
-5.710033
 10
-7.497432
 20
-6.133965
 10
-8.486606
 20
-6.369483
 10
-9.098952
 20
-5.568723
 10
-8.439502
 20
-4.673755
 10
-7.544535
 20
-4.06141
 10
-6.508257
 20
-3.872995
 10
-5.660394
 20
-3.307753
 10
-4.200184
 20
-3.025132
 10
-3.446528
 20
-4.20272
 10
-3.352321
 20
-4.155617
  0
LWPOLYLINE
  5
430E
330
435F
100
AcDbEntity
  8
Level 1
370
    30
100
AcDbPolyline
 90
      123
 70
   128
 43
0.0
 10
1.923275
 20
4.699848
 10
1.970379
 20
4.181709
 10
1.970379
 20
3.66357
 10
1.970379
 20
3.145431
 10
1.970379
 20
2.580189
 10
1.876172
 20
2.06205
 10
1.781965
 20
1.543911
 10
1.781965
 20
1.025772
 10
1.781965
 20
0.507633
 10
1.781965
 20
-0.010505
 10
1.829068
 20
-0.528644
 10
1.876172
 20
-1.046783
 10
1.876172
 20
-1.564922
 10
1.923275
 20
-2.083061
 10
2.017482
 20
-2.6012
 10
2.064586
 20
-3.166442
 10
2.11169
 20
-3.684581
 10
2.253
 20
-4.20272
 10
2.582725
 20
-4.579548
 10
2.865346
 20
-5.00348
 10
3.006657
 20
-4.485341
 10
3.195071
 20
-4.014306
 10
3.336381
 20
-3.496167
 10
3.383485
 20
-2.978028
 10
3.383485
 20
-2.459889
 10
3.383485
 20
-1.94175
 10
3.430588
 20
-1.423612
 10
3.430588
 20
-0.905473
 10
3.477692
 20
-0.387334
 10
3.524796
 20
0.130805
 10
3.571899
 20
0.648944
 10
3.571899
 20
1.167083
 10
3.571899
 20
1.685222
 10
3.571899
 20
2.203361
 10
3.571899
 20
2.7215
 10
3.571899
 20
3.239638
 10
3.571899
 20
3.757777
 10
3.619003
 20
4.275916
 10
3.71321
 20
4.794055
 10
3.807417
 20
5.359298
 10
3.948727
 20
5.877436
 10
4.090038
 20
6.395575
 10
4.137142
 20
6.913714
 10
4.325556
 20
7.38475
 10
4.51397
 20
7.855785
 10
4.702384
 20
8.32682
 10
4.985005
 20
8.797856
 10
5.45604
 20
8.98627
 10
5.974179
 20
8.939166
 10
6.492318
 20
8.797856
 10
6.822043
 20
8.421027
 10
7.057561
 20
7.949992
 10
7.340182
 20
7.52606
 10
7.5757
 20
7.055025
 10
7.669907
 20
6.536886
 10
7.71701
 20
6.018747
 10
7.71701
 20
5.500608
 10
7.71701
 20
4.982469
 10
7.71701
 20
4.46433
 10
7.71701
 20
3.946191
 10
7.622803
 20
3.428053
 10
7.340182
 20
3.004121
 10
6.963354
 20
2.674396
 10
6.633629
 20
2.297568
 10
6.445215
 20
1.826532
 10
6.162594
 20
1.402601
 10
5.879972
 20
0.978669
 10
5.691558
 20
0.507633
 10
5.267626
 20
0.225012
 10
4.796591
 20
-0.010505
 10
4.372659
 20
-0.34023
 10
3.901624
 20
-0.622851
 10
3.524796
 20
-0.952576
 10
3.147967
 20
-1.329404
 10
2.865346
 20
-1.753336
 10
2.488518
 20
-2.083061
 10
2.205897
 20
-2.506993
 10
1.923275
 20
-2.930925
 10
1.546447
 20
-3.354856
 10
1.263826
 20
-3.778788
 10
1.075412
 20
-4.249824
 10
0.792791
 20
-4.673755
 10
0.604376
 20
-5.144791
 10
0.510169
 20
-5.66293
 10
0.698583
 20
-6.133965
 10
1.169619
 20
-6.322379
 10
1.687758
 20
-6.369483
 10
2.205897
 20
-6.510793
 10
2.724035
 20
-6.605
 10
3.242174
 20
-6.652104
 10
3.760313
 20
-6.652104
 10
4.325556
 20
-6.652104
 10
4.843695
 20
-6.652104
 10
5.361833
 20
-6.652104
 10
5.879972
 20
-6.652104
 10
6.398111
 20
-6.652104
 10
6.91625
 20
-6.652104
 10
7.434389
 20
-6.652104
 10
7.811217
 20
-6.275276
 10
8.282253
 20
-6.086862
 10
8.706184
 20
-5.80424
 10
9.130116
 20
-5.427412
 10
9.31853
 20
-4.956377
 10
9.506945
 20
-4.485341
 10
9.789566
 20
-4.06141
 10
9.97798
 20
-3.590374
 10
10.11929
 20
-3.072235
 10
10.213498
 20
-2.554096
 10
10.213498
 20
-2.035958
 10
9.883773
 20
-1.659129
 10
9.506945
 20
-1.329404
 10
9.130116
 20
-0.952576
 10
8.800391
 20
-0.528644
 10
8.329356
 20
-0.246023
 10
7.858321
 20
0.036598
 10
7.340182
 20
0.130805
 10
6.822043
 20
0.225012
 10
6.303904
 20
0.319219
 10
5.738662
 20
0.319219
 10
5.173419
 20
0.319219
 10
4.65528
 20
0.319219
 10
4.137142
 20
0.413426
 10
4.137142
 20
0.413426
  0
LWPOLYLINE
  5
430F
330
435F
100
AcDbEntity
  8
Level 1
370
    30
100
AcDbPolyline
 90
       61
 70
   128
 43
0.0
 10
16.619578
 20
-3.731685
 10
16.713785
 20
-3.213546
 10
16.713785
 20
-2.695407
 10
16.713785
 20
-2.177268
 10
16.289854
 20
-1.80044
 10
15.913025
 20
-1.423612
 10
15.630404
 20
-0.99968
 10
15.206472
 20
-0.717059
 10
14.78254
 20
-0.434437
 10
14.311505
 20
-0.246023
 10
13.793366
 20
-0.246023
 10
13.275227
 20
-0.434437
 10
12.898399
 20
-0.764162
 10
12.474467
 20
-1.093887
 10
12.097639
 20
-1.423612
 10
11.815018
 20
-1.847543
 10
11.626604
 20
-2.318579
 10
11.343982
 20
-2.742511
 10
11.155568
 20
-3.213546
 10
11.485293
 20
-3.590374
 10
11.815018
 20
-3.967202
 10
12.38026
 20
-4.108513
 10
12.898399
 20
-4.108513
 10
13.416538
 20
-4.108513
 10
13.887573
 20
-3.920099
 10
14.217298
 20
-3.496167
 10
14.547023
 20
-3.119339
 10
14.876748
 20
-2.695407
 10
15.347783
 20
-2.412786
 10
15.913025
 20
-2.412786
 10
16.478268
 20
-2.459889
 10
16.949303
 20
-2.648303
 10
17.420338
 20
-2.836718
 10
17.84427
 20
-3.119339
 10
18.362409
 20
-3.119339
 10
18.50372
 20
-2.6012
 10
18.64503
 20
-2.083061
 10
18.692134
 20
-1.517819
 10
18.692134
 20
-0.99968
 10
18.50372
 20
-1.470715
 10
18.409513
 20
-1.988854
 10
18.409513
 20
-2.506993
 10
18.409513
 20
-3.025132
 10
18.456616
 20
-3.543271
 10
18.927652
 20
-3.778788
 10
19.398687
 20
-4.06141
 10
19.916826
 20
-4.20272
 10
20.434965
 20
-4.249824
 10
20.953104
 20
-4.249824
 10
21.471242
 20
-4.155617
 10
21.895174
 20
-3.872995
 10
22.177795
 20
-3.40196
 10
22.554624
 20
-3.072235
 10
22.837245
 20
-2.6012
 10
23.214073
 20
-2.271475
 10
23.638005
 20
-1.988854
 10
24.014833
 20
-1.612026
 10
24.391662
 20
-1.235197
 10
24.815593
 20
-0.952576
 10
25.239525
 20
-0.669955
 10
25.522146
 20
-0.293127
  0
LWPOLYLINE
  5
4310
330
435F
100
AcDbEntity
  8
Level 1
370
    30
100
AcDbPolyline
 90
       11
 70
   128
 43
0.0
 10
18.079788
 20
7.431853
 10
18.079788
 20
6.913714
 10
18.456616
 20
6.583989
 10
18.974755
 20
6.442679
 10
19.492894
 20
6.489782
 10
19.587101
 20
7.007921
 10
19.210273
 20
7.337646
 10
18.833444
 20
7.714474
 10
18.315306
 20
7.714474
 10
17.84427
 20
7.52606
 10
17.84427
 20
7.196335
  0
LWPOLYLINE
  5
4311
330
435F
100
AcDbEntity
  8
Level 1
370
    30
100
AcDbPolyline
 90
      123
 70
   128
 43
0.0
 10
25.616354
 20
-0.293127
 10
25.898975
 20
0.130805
 10
26.181596
 20
0.554737
 10
26.464217
 20
0.978669
 10
26.793942
 20
1.355497
 10
27.217874
 20
1.638118
 10
27.547598
 20
2.014947
 10
27.83022
 20
2.485982
 10
28.065737
 20
2.957017
 10
28.395462
 20
3.428053
 10
28.678083
 20
3.899088
 10
28.866497
 20
4.370123
 10
29.149119
 20
4.888262
 10
29.384636
 20
5.406401
 10
29.620154
 20
5.92454
 10
29.808568
 20
6.395575
 10
29.996982
 20
6.866611
 10
30.185396
 20
7.337646
 10
30.326707
 20
7.855785
 10
30.515121
 20
8.32682
 10
30.609328
 20
8.844959
 10
30.703535
 20
9.363098
 10
30.609328
 20
9.881237
 10
30.279603
 20
10.258065
 10
29.808568
 20
10.446479
 10
29.290429
 20
10.540686
 10
28.819394
 20
10.258065
 10
28.395462
 20
9.975444
 10
27.924427
 20
9.78703
 10
27.547598
 20
9.457305
 10
27.264977
 20
9.033373
 10
26.982356
 20
8.609441
 10
26.605528
 20
8.232613
 10
26.511321
 20
7.714474
 10
26.322907
 20
7.243439
 10
26.134492
 20
6.772404
 10
25.851871
 20
6.348472
 10
25.663457
 20
5.877436
 10
25.380836
 20
5.453505
 10
25.286629
 20
4.935366
 10
25.004008
 20
4.511434
 10
24.9098
 20
3.993295
 10
24.721386
 20
3.475156
 10
24.532972
 20
2.957017
 10
24.344558
 20
2.485982
 10
24.344558
 20
1.967843
 10
24.344558
 20
1.449704
 10
24.438765
 20
0.931565
 10
24.674283
 20
0.46053
 10
24.862697
 20
-0.057609
 10
25.098215
 20
-0.528644
 10
25.475043
 20
-0.858369
 10
25.946078
 20
-1.046783
 10
26.37001
 20
-1.376508
 10
26.888149
 20
-1.470715
 10
27.359184
 20
-1.753336
 10
27.83022
 20
-1.94175
 10
28.395462
 20
-1.988854
 10
28.913601
 20
-1.988854
 10
29.196222
 20
-1.564922
 10
29.478843
 20
-1.14099
 10
29.714361
 20
-0.622851
 10
29.902775
 20
-0.104713
 10
29.949879
 20
0.413426
 10
30.091189
 20
0.978669
 10
29.714361
 20
1.308393
 10
29.525947
 20
0.790255
 10
29.337533
 20
0.319219
 10
29.337533
 20
-0.19892
 10
29.337533
 20
-0.717059
 10
29.337533
 20
-1.235197
 10
29.525947
 20
-1.753336
 10
29.996982
 20
-2.035958
 10
30.468018
 20
-2.224372
 10
30.986157
 20
-2.271475
 10
31.504295
 20
-2.271475
 10
31.975331
 20
-2.083061
 10
32.257952
 20
-1.612026
 10
32.587677
 20
-1.235197
 10
32.823194
 20
-0.717059
 10
32.964505
 20
-0.19892
 10
32.728987
 20
-0.717059
 10
32.540573
 20
-1.188094
 10
32.352159
 20
-1.659129
 10
32.540573
 20
-2.130165
 10
33.011609
 20
-2.365682
 10
33.482644
 20
-2.6012
 10
33.812369
 20
-2.978028
 10
34.330508
 20
-3.119339
 10
34.848646
 20
-3.307753
 10
35.178371
 20
-3.684581
 10
35.366785
 20
-4.155617
 10
35.555199
 20
-4.626652
 10
35.555199
 20
-5.144791
 10
35.460992
 20
-5.66293
 10
35.084164
 20
-5.992654
 10
34.801543
 20
-6.416586
 10
34.424715
 20
-6.840518
 10
34.142093
 20
-7.26445
 10
33.671058
 20
-7.594175
 10
33.29423
 20
-7.923899
 10
32.823194
 20
-8.206521
 10
32.352159
 20
-8.489142
 10
31.928227
 20
-8.771763
 10
31.362985
 20
-8.818867
 10
30.844846
 20
-8.86597
 10
30.326707
 20
-8.86597
 10
29.855672
 20
-8.583349
 10
29.57305
 20
-8.159417
 10
29.478843
 20
-7.641278
 10
29.525947
 20
-7.123139
 10
29.667258
 20
-6.605
 10
29.949879
 20
-6.133965
 10
30.279603
 20
-5.757137
 10
30.750639
 20
-5.568723
 10
31.221674
 20
-5.380308
 10
31.739813
 20
-5.286101
 10
32.257952
 20
-5.286101
 10
32.776091
 20
-5.191894
 10
33.29423
 20
-5.191894
 10
33.812369
 20
-5.097687
 10
34.330508
 20
-5.00348
 10
34.613129
 20
-4.909273
  0
ENDBLK
  5
4361
330
435F
100
AcDbEntity
  8
0
100
AcDbBlockEnd
  0
ENDSEC
  0
SECTION
  2
ENTITIES
  0
LINE
  5
2B7F
330
431C
100
AcDbEntity
  8
Level 3
  6
Continuous
 62
    92
370
    53
100
AcDbLine
 10
-70296.920851
 20
3223.067301
 30
0.0
 11
-70259.083795
 21
3223.067301
 31
0.0
  0
LINE
  5
2B80
330
431C
100
AcDbEntity
  8
Level 3
  6
Continuous
 62
    92
370
    53
100
AcDbLine
 10
-70296.920851
 20
3202.067301
 30
0.0
 11
-70259.083795
 21
3202.067301
 31
0.0
  0
LINE
  5
2B83
330
431C
100
AcDbEntity
  8
Level 3
  6
DGN Style 3
 62
     6
370
    30
100
AcDbLine
 10
-70272.920851
 20
3207.567301
 30
0.0
 11
-70272.920851
 21
3217.567301
 31
0.0
  0
LINE
  5
2B84
330
431C
100
AcDbEntity
  8
Level 3
  6
DGN Style 3
 62
     6
370
    30
100
AcDbLine
 10
-70259.083795
 20
3217.567301
 30
0.0
 11
-70272.920851
 21
3217.567301
 31
0.0
  0
LINE
  5
2B86
330
431C
100
AcDbEntity
  8
Level 3
  6
DGN Style 3
 62
     6
370
    30
100
AcDbLine
 10
-70259.083795
 20
3207.567301
 30
0.0
 11
-70272.920851
 21
3207.567301
 31
0.0
  0
LINE
  5
2B87
330
431C
100
AcDbEntity
  8
Level 3
  6
DGN Style 7
 62
     2
370
    30
100
AcDbLine
 10
-70287.920851
 20
3201.067301
 30
0.0
 11
-70287.920851
 21
3228.764217
 31
0.0
  0
LINE
  5
2B89
330
431C
100
AcDbEntity
  8
Level 3
  6
Continuous
 62
    92
370
    53
100
AcDbLine
 10
-70281.920851
 20
3201.067301
 30
0.0
 11
-70297.920851
 21
3201.067301
 31
0.0
  0
LINE
  5
2B8B
330
431C
100
AcDbEntity
  8
Level 3
  6
Continuous
 62
    92
370
    53
100
AcDbLine
 10
-70309.920851
 20
3223.067301
 30
0.0
 11
-70309.920851
 21
3188.086386
 31
0.0
  0
LINE
  5
2B8C
330
431C
100
AcDbEntity
  8
Level 3
  6
Continuous
 62
    92
370
    53
100
AcDbLine
 10
-70281.920851
 20
3201.067301
 30
0.0
 11
-70281.920851
 21
3188.086386
 31
0.0
  0
LINE
  5
2B8D
330
431C
100
AcDbEntity
  8
Level 3
 62
    92
370
    53
100
AcDbLine
 10
-70286.920851
 20
3202.067301
 30
0.0
 11
-70286.920851
 21
3223.067301
 31
0.0
  0
LINE
  5
2B8E
330
431C
100
AcDbEntity
  8
Level 3
 62
    92
370
    53
100
AcDbLine
 10
-70288.920851
 20
3202.067301
 30
0.0
 11
-70288.920851
 21
3223.067301
 31
0.0
  0
SOLID
  5
2B9A
330
431C
100
AcDbEntity
  8
Level 3
 62
    92
370
     0
100
AcDbTrace
 10
70288.439801
 20
3214.107196
 30
0.0
 11
70287.439801
 21
3214.107196
 31
0.0
 12
70288.439801
 22
3190.107196
 32
0.0
 13
70287.439801
 23
3190.107196
 33
0.0
210
0.0
220
0.0
230
-1.0
  0
LWPOLYLINE
  5
2B9C
330
431C
100
AcDbEntity
  8
Level 5
  6
Continuous
 62
    92
370
    53
100
AcDbPolyline
 90
        6
 70
   128
 43
0.0
 10
-70312.380634
 20
3188.086386
 10
-70296.732092
 20
3188.086386
 10
-70296.732092
 20
3189.086386
 10
-70294.732092
 20
3187.086386
 10
-70294.732092
 20
3188.086386
 10
-70279.08355
 20
3188.086386
  0
LINE
  5
2B9D
330
431C
100
AcDbEntity
  8
Level 3
 62
    92
370
    40
100
AcDbLine
 10
-70292.420851
 20
3201.067301
 30
0.0
 11
-70292.420851
 21
3202.067301
 31
0.0
  0
LINE
  5
2B9E
330
431C
100
AcDbEntity
  8
Level 3
 62
    92
370
    40
100
AcDbLine
 10
-70283.420851
 20
3201.067301
 30
0.0
 11
-70283.420851
 21
3202.067301
 31
0.0
  0
LINE
  5
2B7E
330
431C
100
AcDbEntity
  8
Level 3
  6
Continuous
 62
    92
370
    53
100
AcDbLine
 10
-70296.920851
 20
3202.067301
 30
0.0
 11
-70296.920851
 21
3223.067301
 31
0.0
  0
LINE
  5
2B88
330
431C
100
AcDbEntity
  8
Level 3
  6
Continuous
 62
    92
370
    53
100
AcDbLine
 10
-70297.920851
 20
3201.067301
 30
0.0
 11
-70297.920851
 21
3223.067301
 31
0.0
  0
HATCH
  5
2BDB
330
431C
100
AcDbEntity
  8
Level 3
 62
    92
370
    40
100
AcDbHatch
 10
0.0
 20
0.0
 30
0.0
210
0.0
220
0.0
230
1.0
  2
SOLID
 70
     1
 71
     0
 91
        1
 92
        3
 72
     0
 73
     1
 93
        7
 10
-70297.93501025018
 20
3221.691103793738
 10
-70297.92085062859
 20
3221.691103793738
 10
-70297.92085062859
 20
3223.067300858897
 10
-70296.92085062859
 20
3223.067300858897
 10
-70296.92085062859
 20
3221.691103793738
 10
-70296.93501025018
 20
3221.691103793738
 10
-70297.92085062859
 20
3221.691103793738
 97
        0
 75
     0
 76
     1
 98
        0
  0
LINE
  5
2BDD
330
431C
100
AcDbEntity
  8
Level 3
 62
    92
370
    53
100
AcDbLine
 10
-70309.920851
 20
3223.067301
 30
0.0
 11
-70297.920851
 21
3223.067301
 31
0.0
  0
LWPOLYLINE
  5
2BDE
330
431C
100
AcDbEntity
  8
Level 5
  6
Continuous
 62
    92
370
    53
100
AcDbPolyline
 90
        6
 70
   128
 43
0.0
 10
-70259.083795
 20
3225.561248
 10
-70259.083795
 20
3213.590428
 10
-70258.083795
 20
3213.590428
 10
-70260.083795
 20
3211.590428
 10
-70259.083795
 20
3211.590428
 10
-70259.083795
 20
3199.619608
  0
LINE
  5
2BE1
330
431C
100
AcDbEntity
  8
Level 3
  6
Continuous
 62
    92
370
    53
100
AcDbLine
 10
-70170.09304
 20
3180.466178
 30
0.0
 11
-70146.09304
 21
3180.466178
 31
0.0
  0
LINE
  5
2BE2
330
431C
100
AcDbEntity
  8
Level 3
  6
Continuous
 62
    92
370
    53
100
AcDbLine
 10
-70146.09304
 20
3180.466178
 30
0.0
 11
-70146.09304
 21
3204.466178
 31
0.0
  0
LINE
  5
2BE4
330
431C
100
AcDbEntity
  8
Level 3
  6
DGN Style 7
 62
     2
370
    30
100
AcDbLine
 10
-70158.09304
 20
3231.521493
 30
0.0
 11
-70158.09304
 21
3211.913565
 31
0.0
  0
LINE
  5
2BE9
330
431C
100
AcDbEntity
  8
Level 3
 62
    92
370
    40
100
AcDbLine
 10
-70162.573214
 20
3205.402097
 30
0.0
 11
-70153.612946
 21
3205.402097
 31
0.0
  0
LINE
  5
2BEB
330
431C
100
AcDbEntity
  8
Level 3
 62
    30
370
    40
100
AcDbLine
 10
-70158.070791
 20
3205.427401
 30
0.0
 11
-70158.070791
 21
3206.408127
 31
0.0
  0
LINE
  5
2BEE
330
431C
100
AcDbEntity
  8
Level 3
 62
    92
370
    40
100
AcDbLine
 10
-70167.070791
 20
3205.427401
 30
0.0
 11
-70130.008301
 21
3205.427401
 31
0.0
  0
LINE
  5
2BF1
330
431C
100
AcDbEntity
  8
Level 3
  6
DGN Style 3
 62
     6
370
    30
100
AcDbLine
 10
-70143.070791
 20
3220.927401
 30
0.0
 11
-70143.070791
 21
3210.927401
 31
0.0
  0
LINE
  5
2BF3
330
431C
100
AcDbEntity
  8
Level 3
  6
DGN Style 3
 62
     6
370
    30
100
AcDbLine
 10
-70143.070791
 20
3210.927401
 30
0.0
 11
-70130.008301
 21
3210.927401
 31
0.0
  0
LINE
  5
2BF2
330
431C
100
AcDbEntity
  8
Level 3
  6
DGN Style 3
 62
     6
370
    30
100
AcDbLine
 10
-70143.070791
 20
3220.927401
 30
0.0
 11
-70130.008301
 21
3220.927401
 31
0.0
  0
LINE
  5
2BF6
330
431C
100
AcDbEntity
  8
Level 3
  6
Continuous
 62
    92
370
    53
100
AcDbLine
 10
-70157.09304
 20
3205.427401
 30
0.0
 11
-70157.09304
 21
3226.427401
 31
0.0
  0
LINE
  5
2BF5
330
431C
100
AcDbEntity
  8
Level 3
  6
Continuous
 62
    92
370
    53
100
AcDbLine
 10
-70159.09304
 20
3205.427401
 30
0.0
 11
-70159.09304
 21
3226.427401
 31
0.0
  0
LINE
  5
2C01
330
431C
100
AcDbEntity
  8
Level 3
  6
Continuous
 62
    92
370
    53
100
AcDbLine
 10
-70170.09304
 20
3204.466178
 30
0.0
 11
-70170.09304
 21
3180.466178
 31
0.0
  0
LINE
  5
2C02
330
431C
100
AcDbEntity
  8
Level 3
  6
Continuous
 62
    92
370
    53
100
AcDbLine
 10
-70170.09304
 20
3204.466178
 30
0.0
 11
-70146.09304
 21
3204.466178
 31
0.0
  0
LINE
  5
2BEF
330
431C
100
AcDbEntity
  8
Level 3
 62
    30
370
    40
100
AcDbLine
 10
-70167.570791
 20
3226.427401
 30
0.0
 11
-70167.070791
 21
3226.427401
 31
0.0
  0
LINE
  5
2C03
330
431C
100
AcDbEntity
  8
Level 3
 62
    92
370
    40
100
AcDbLine
 10
-70167.070791
 20
3226.427401
 30
0.0
 11
-70130.008301
 21
3226.427401
 31
0.0
  0
HATCH
  5
2C04
330
431C
100
AcDbEntity
  8
Level 3
 62
    92
370
     0
100
AcDbHatch
 10
0.0
 20
0.0
 30
0.0
210
0.0
220
0.0
230
1.0
  2
SOLID
 70
     1
 71
     0
 91
        1
 92
        3
 72
     0
 73
     1
 93
        9
 10
-70170.59304034722
 20
3192.466178425447
 10
-70170.59304034722
 20
3204.966178425447
 10
-70167.57079098652
 20
3204.966178425447
 10
-70167.57079098652
 20
3226.427401143743
 10
-70167.24982300345
 20
3226.427401143743
 10
-70167.07079098652
 20
3226.427401143743
 10
-70167.07079098652
 20
3204.466178425447
 10
-70170.09304034722
 20
3204.466178425447
 10
-70170.09304034722
 20
3192.466178425447
 97
        0
 75
     0
 76
     1
 98
        0
  0
LINE
  5
2BE8
330
431C
100
AcDbEntity
  8
Level 3
 62
    92
370
    40
100
AcDbLine
 10
-70162.573214
 20
3204.466178
 30
0.0
 11
-70162.573214
 21
3205.427401
 31
0.0
  0
LINE
  5
2BE7
330
431C
100
AcDbEntity
  8
Level 3
 62
    92
370
    40
100
AcDbLine
 10
-70153.568368
 20
3204.491254
 30
0.0
 11
-70153.568368
 21
3205.427401
 31
0.0
  0
LWPOLYLINE
  5
2CE3
330
431C
100
AcDbEntity
  8
Level 5
  6
Continuous
 62
    92
370
    53
100
AcDbPolyline
 90
        6
 70
   128
 43
0.0
 10
-70130.008301
 20
3229.135039
 10
-70130.008301
 20
3217.247803
 10
-70129.008301
 20
3217.247803
 10
-70131.008301
 20
3215.247803
 10
-70130.008301
 20
3215.247803
 10
-70130.008301
 20
3203.360568
  0
SOLID
  5
2CE4
330
431C
100
AcDbEntity
  8
Level 3
 62
    92
370
     0
100
AcDbTrace
 10
70158.594228
 20
3216.526498
 30
0.0
 11
70157.594228
 21
3216.526498
 31
0.0
 12
70158.594228
 22
3192.526498
 32
0.0
 13
70157.594228
 23
3192.526498
 33
0.0
210
0.0
220
0.0
230
-1.0
  0
POINT
  5
2C7D
330
431C
100
AcDbEntity
  8
STRUCTURES TEXT
  6
Continuous
 62
     1
370
   211
100
AcDbPoint
 10
-70376.348237
 20
3248.839053
 30
0.0
  0
POINT
  5
2C7F
330
431C
100
AcDbEntity
  8
STRUCTURES TEXT
  6
Continuous
 62
     1
370
   211
100
AcDbPoint
 10
-69948.866237
 20
2972.233053
 30
0.0
  0
LINE
  5
2C81
330
431C
100
AcDbEntity
  8
STRUCTURES TEXT
  6
Continuous
 62
     5
370
   106
100
AcDbLine
 10
-70357.488737
 20
2978.519553
 30
0.0
 11
-70357.488737
 21
3242.552553
 31
0.0
  0
LINE
  5
2C82
330
431C
100
AcDbEntity
  8
STRUCTURES TEXT
  6
Continuous
 62
     5
370
   106
100
AcDbLine
 10
-69955.152737
 20
2978.519553
 30
0.0
 11
-70357.488737
 21
2978.519553
 31
0.0
  0
LINE
  5
2C83
330
431C
100
AcDbEntity
  8
STRUCTURES TEXT
  6
Continuous
 62
     5
370
   106
100
AcDbLine
 10
-70357.488737
 20
3242.552553
 30
0.0
 11
-69955.152737
 21
3242.552553
 31
0.0
  0
LINE
  5
2C84
330
431C
100
AcDbEntity
  8
STRUCTURES TEXT
  6
Continuous
 62
     5
370
   106
100
AcDbLine
 10
-69955.152737
 20
3242.552553
 30
0.0
 11
-69955.152737
 21
2978.519553
 31
0.0
  0
LINE
  5
2CBC
330
431C
100
AcDbEntity
  8
STRUCTURES TEXT
  6
Continuous
 62
     5
370
    70
100
AcDbLine
 10
-70038.700322
 20
3229.979553
 30
0.0
 11
-69955.152737
 21
3229.979553
 31
0.0
  0
LINE
  5
2CBD
330
431C
100
AcDbEntity
  8
STRUCTURES TEXT
  6
Continuous
 62
     5
370
    70
100
AcDbLine
 10
-70038.700322
 20
3236.266053
 30
0.0
 11
-69955.152737
 21
3236.266053
 31
0.0
  0
LINE
  5
2CBE
330
431C
100
AcDbEntity
  8
STRUCTURES TEXT
  6
Continuous
 62
     5
370
    70
100
AcDbLine
 10
-69970.617527
 20
3242.552553
 30
0.0
 11
-69970.617527
 21
3229.979553
 31
0.0
  0
LINE
  5
2CBF
330
431C
100
AcDbEntity
  8
STRUCTURES TEXT
  6
Continuous
 62
     5
370
    70
100
AcDbLine
 10
-69962.885132
 20
3242.552553
 30
0.0
 11
-69962.885132
 21
3229.979553
 31
0.0
  0
LINE
  5
2CC0
330
431C
100
AcDbEntity
  8
STRUCTURES TEXT
  6
Continuous
 62
     5
370
    70
100
AcDbLine
 10
-69990.734327
 20
3242.552553
 30
0.0
 11
-69990.734327
 21
3229.979553
 31
0.0
  0
LINE
  5
2CC1
330
431C
100
AcDbEntity
  8
STRUCTURES TEXT
  6
Continuous
 62
     5
370
    70
100
AcDbLine
 10
-69998.466722
 20
3242.552553
 30
0.0
 11
-69998.466722
 21
3229.979553
 31
0.0
  0
LINE
  5
2CC2
330
431C
100
AcDbEntity
  8
STRUCTURES TEXT
  6
Continuous
 62
     5
370
    70
100
AcDbLine
 10
-70018.583522
 20
3242.552553
 30
0.0
 11
-70018.583522
 21
3229.979553
 31
0.0
  0
LINE
  5
2CC3
330
431C
100
AcDbEntity
  8
STRUCTURES TEXT
  6
Continuous
 62
     5
370
    70
100
AcDbLine
 10
-70038.700322
 20
3242.552553
 30
0.0
 11
-70038.700322
 21
3229.979553
 31
0.0
  0
MTEXT
  5
2CC4
330
431C
100
AcDbEntity
  8
STRUCTURES TEXT
  6
Continuous
 62
     1
370
    30
100
AcDbMText
 10
-70028.932555
 20
3239.697317
 30
0.0
 40
1.00584
 41
0.0
 71
     5
 72
     1
  1
STATE\PPROJECT NUMBER
  7
Style 2 - FS Sheet
 73
     2
 44
1.5
  0
MTEXT
  5
2CC7
330
431C
100
AcDbEntity
  8
STRUCTURES TEXT
  6
Continuous
 62
     1
370
    30
100
AcDbMText
 10
-70008.566435
 20
3239.697317
 30
0.0
 40
1.00584
 41
0.0
 71
     5
 72
     1
  1
FEDERAL \PPROJECT NUMBER
  7
Style 2 - FS Sheet
 73
     2
 44
1.5
  0
MTEXT
  5
2CCA
330
431C
100
AcDbEntity
  8
STRUCTURES TEXT
  6
Continuous
 62
     1
370
    30
100
AcDbMText
 10
-69994.520835
 20
3239.424325
 30
0.0
 40
1.00584
 41
0.0
 71
     5
 72
     1
  1
STATE\PDIST. \PNO.
  7
Style 2 - FS Sheet
 73
     2
 44
1.275
  0
TEXT
  5
2CCE
330
431C
100
AcDbEntity
  8
STRUCTURES TEXT
  6
Continuous
 62
     1
370
    30
100
AcDbText
 10
-69983.6704
 20
3238.843257
 30
0.0
 40
1.00584
  1
COUNTY
  7
Style 2 - FS Sheet
 72
     1
 11
-69980.755895
 21
3239.346177
 31
0.0
100
AcDbText
 73
     2
  0
MTEXT
  5
2CCF
330
431C
100
AcDbEntity
  8
STRUCTURES TEXT
  6
Continuous
 62
     1
370
    30
100
AcDbMText
 10
-69966.429634
 20
3239.346177
 30
0.0
 40
1.00584
 41
0.0
 71
     5
 72
     1
  1
SHEET \PNO.
  7
Style 2 - FS Sheet
 73
     2
 44
1.5
  0
MTEXT
  5
2CD2
330
431C
100
AcDbEntity
  8
STRUCTURES TEXT
  6
Continuous
 62
     1
370
    30
100
AcDbMText
 10
-69959.055694
 20
3239.346177
 30
0.0
 40
1.00584
 41
0.0
 71
     5
 72
     1
  1
TOTAL \PSHEETS
  7
Style 2 - FS Sheet
 73
     2
 44
1.5
  0
POINT
  5
33E8
330
431C
100
AcDbEntity
  8
STRUCTURES TEXT
  6
Continuous
 62
     6
370
    13
100
AcDbPoint
 10
-70143.790248
 20
3039.835748
 30
0.0
  0
LINE
  5
33E9
330
431C
100
AcDbEntity
  8
STRUCTURES TEXT
  6
Continuous
 62
    92
370
   100
100
AcDbLine
 10
-70144.742748
 20
3049.995748
 30
0.0
 11
-70145.695248
 21
3049.043248
 31
0.0
  0
LINE
  5
33EA
330
431C
100
AcDbEntity
  8
STRUCTURES TEXT
  6
Continuous
 62
    92
370
   100
100
AcDbLine
 10
-70143.790248
 20
3039.835748
 30
0.0
 11
-70145.695248
 21
3041.740748
 31
0.0
  0
POINT
  5
33EB
330
431C
100
AcDbEntity
  8
STRUCTURES TEXT
  6
Continuous
 62
     6
370
    13
100
AcDbPoint
 10
-70145.695248
 20
3041.740748
 30
0.0
  0
LINE
  5
33EC
330
431C
100
AcDbEntity
  8
STRUCTURES TEXT
  6
Continuous
 62
    92
370
   100
100
AcDbLine
 10
-70145.695248
 20
3049.043248
 30
0.0
 11
-70145.695248
 21
3041.740748
 31
0.0
  0
LINE
  5
33F0
330
431C
100
AcDbEntity
  8
STRUCTURES TEXT
  6
Continuous
 62
    92
370
   100
100
AcDbLine
 10
-70159.344485
 20
3060.155748
 30
0.0
 11
-70144.742748
 21
3060.155748
 31
0.0
  0
LINE
  5
33F1
330
431C
100
AcDbEntity
  8
STRUCTURES TEXT
  6
Continuous
 62
    92
370
   100
100
AcDbLine
 10
-70143.790248
 20
3039.835748
 30
0.0
 11
-70143.790248
 21
3015.7484
 31
0.0
  0
LINE
  5
33FB
330
431C
100
AcDbEntity
  8
STRUCTURES TEXT
  6
Continuous
 62
    92
370
   100
100
AcDbLine
 10
-70144.742748
 20
3060.155748
 30
0.0
 11
-70144.742748
 21
3049.995748
 31
0.0
  0
LINE
  5
3532
330
431C
100
AcDbEntity
  8
STRUCTURES TEXT
  6
Continuous
 62
    92
370
    53
100
AcDbLine
 10
-69977.670858
 20
3058.335904
 30
0.0
 11
-69977.670858
 21
3048.335904
 31
0.0
  0
LINE
  5
3533
330
431C
100
AcDbEntity
  8
STRUCTURES TEXT
  6
Continuous
 62
    92
370
    53
100
AcDbLine
 10
-69977.670858
 20
3058.335904
 30
0.0
 11
-69967.670858
 21
3058.335904
 31
0.0
  0
LINE
  5
3534
330
431C
100
AcDbEntity
  8
STRUCTURES TEXT
  6
Continuous
 62
    92
370
    53
100
AcDbLine
 10
-69967.670858
 20
3058.335904
 30
0.0
 11
-69967.670858
 21
3048.335904
 31
0.0
  0
LINE
  5
3535
330
431C
100
AcDbEntity
  8
STRUCTURES TEXT
  6
Continuous
 62
    92
370
    53
100
AcDbLine
 10
-69977.670858
 20
3048.335904
 30
0.0
 11
-69967.670858
 21
3048.335904
 31
0.0
  0
LINE
  5
3537
330
431C
100
AcDbEntity
  8
Level 2
100
AcDbLine
 10
-69970.795858
 20
3048.335904
 30
0.0
 11
-69970.795858
 21
3058.335904
 31
0.0
  0
LINE
  5
3538
330
431C
100
AcDbEntity
  8
Level 2
100
AcDbLine
 10
-69974.545858
 20
3048.335904
 30
0.0
 11
-69974.545858
 21
3058.335904
 31
0.0
  0
CIRCLE
  5
3539
330
431C
100
AcDbEntity
  8
STRUCTURES TEXT
  6
Continuous
 62
    92
370
    53
100
AcDbCircle
 10
-69972.670858
 20
3079.793038
 30
0.0
 40
1.875
  0
CIRCLE
  5
353A
330
431C
100
AcDbEntity
  8
STRUCTURES TEXT
  6
Continuous
 62
    92
370
    53
100
AcDbCircle
 10
-69972.670858
 20
3079.793038
 30
0.0
 40
5.0
  0
LINE
  5
353B
330
431C
100
AcDbEntity
  8
STRUCTURES TEXT
  6
Continuous
 62
    92
370
    53
100
AcDbLine
 10
-69971.277505
 20
3081.130391
 30
0.0
 11
-69969.034036
 21
3083.224295
 31
0.0
  0
LINE
  5
353D
330
431C
100
AcDbEntity
  8
STRUCTURES TEXT
  6
Continuous
 62
    92
370
    53
100
AcDbLine
 10
-70022.524028
 20
3058.335904
 30
0.0
 11
-70022.524028
 21
3048.335904
 31
0.0
  0
LINE
  5
353E
330
431C
100
AcDbEntity
  8
STRUCTURES TEXT
  6
Continuous
 62
    92
370
    53
100
AcDbLine
 10
-70022.524028
 20
3058.335904
 30
0.0
 11
-70007.524028
 21
3058.335904
 31
0.0
  0
LINE
  5
353F
330
431C
100
AcDbEntity
  8
STRUCTURES TEXT
  6
Continuous
 62
    92
370
    53
100
AcDbLine
 10
-70022.524028
 20
3048.335904
 30
0.0
 11
-70007.524028
 21
3048.335904
 31
0.0
  0
LINE
  5
3540
330
431C
100
AcDbEntity
  8
STRUCTURES TEXT
  6
Continuous
 62
    92
370
    53
100
AcDbLine
 10
-70007.524028
 20
3048.335904
 30
0.0
 11
-70007.524028
 21
3058.335904
 31
0.0
  0
LINE
  5
3542
330
431C
100
AcDbEntity
  8
Level 2
100
AcDbLine
 10
-70011.899028
 20
3048.335904
 30
0.0
 11
-70011.899028
 21
3058.335904
 31
0.0
  0
LINE
  5
3543
330
431C
100
AcDbEntity
  8
Level 2
100
AcDbLine
 10
-70018.149028
 20
3048.335904
 30
0.0
 11
-70018.149028
 21
3058.335904
 31
0.0
  0
CIRCLE
  5
3544
330
431C
100
AcDbEntity
  8
STRUCTURES TEXT
  6
Continuous
 62
    92
370
    53
100
AcDbCircle
 10
-70015.024028
 20
3079.793038
 30
0.0
 40
7.5
  0
CIRCLE
  5
3545
330
431C
100
AcDbEntity
  8
STRUCTURES TEXT
  6
Continuous
 62
    92
370
    53
100
AcDbCircle
 10
-70015.024028
 20
3079.793038
 30
0.0
 40
3.125
  0
LINE
  5
3546
330
431C
100
AcDbEntity
  8
STRUCTURES TEXT
  6
Continuous
 62
    92
370
    53
100
AcDbLine
 10
-70012.64731
 20
3082.02196
 30
0.0
 11
-70009.370106
 21
3084.720833
 31
0.0
  0
LINE
  5
3647
330
431C
100
AcDbEntity
  8
STRUCTURES TEXT
 62
    92
370
    53
100
AcDbLine
 10
-70259.807604
 20
3145.954698
 30
0.0
 11
-70259.807604
 21
3117.454698
 31
0.0
  0
LINE
  5
3648
330
431C
100
AcDbEntity
  8
STRUCTURES TEXT
 62
    92
370
    53
100
AcDbLine
 10
-70256.807604
 20
3114.454698
 30
0.0
 11
-70195.807604
 21
3114.454698
 31
0.0
  0
LINE
  5
3649
330
431C
100
AcDbEntity
  8
STRUCTURES TEXT
 62
    92
370
    53
100
AcDbLine
 10
-70256.807604
 20
3115.454698
 30
0.0
 11
-70195.807604
 21
3115.454698
 31
0.0
  0
LINE
  5
364A
330
431C
100
AcDbEntity
  8
STRUCTURES TEXT
 62
    92
370
    53
100
AcDbLine
 10
-70256.807604
 20
3147.954698
 30
0.0
 11
-70195.807604
 21
3147.954698
 31
0.0
  0
LINE
  5
364B
330
431C
100
AcDbEntity
  8
STRUCTURES TEXT
 62
    92
370
     0
100
AcDbLine
 10
-70259.807604
 20
3148.954698
 30
0.0
 11
-70258.773306
 21
3148.954698
 31
0.0
  0
LINE
  5
364C
330
431C
100
AcDbEntity
  8
STRUCTURES TEXT
 62
    92
370
    53
100
AcDbLine
 10
-70256.807604
 20
3148.954698
 30
0.0
 11
-70195.807604
 21
3148.954698
 31
0.0
  0
LINE
  5
364D
330
431C
100
AcDbEntity
  8
STRUCTURES TEXT
 62
    92
370
    53
100
AcDbLine
 10
-70258.807604
 20
3145.954698
 30
0.0
 11
-70258.807604
 21
3117.454698
 31
0.0
  0
ARC
  5
364E
330
431C
100
AcDbEntity
  8
STRUCTURES TEXT
 62
    92
370
    53
100
AcDbCircle
 10
70256.807604
 20
3145.954698
 30
0.0
 40
2.0
210
0.0
220
0.0
230
-1.0
100
AcDbArc
 50
0.0
 51
90.0
  0
ARC
  5
364F
330
431C
100
AcDbEntity
  8
STRUCTURES TEXT
 62
    92
370
    53
100
AcDbCircle
 10
70256.807604
 20
3145.954698
 30
0.0
 40
3.0
210
0.0
220
0.0
230
-1.0
100
AcDbArc
 50
0.0
 51
90.0
  0
ARC
  5
3650
330
431C
100
AcDbEntity
  8
STRUCTURES TEXT
 62
    92
370
    53
100
AcDbCircle
 10
70256.807604
 20
3117.454698
 30
0.0
 40
3.0
210
0.0
220
0.0
230
-1.0
100
AcDbArc
 50
270.0
 51
0.0
  0
ARC
  5
3651
330
431C
100
AcDbEntity
  8
STRUCTURES TEXT
 62
    92
370
    53
100
AcDbCircle
 10
70256.807604
 20
3117.454698
 30
0.0
 40
2.0
210
0.0
220
0.0
230
-1.0
100
AcDbArc
 50
270.0
 51
0.0
  0
LINE
  5
3652
330
431C
100
AcDbEntity
  8
STRUCTURES TEXT
 62
    92
370
    53
100
AcDbLine
 10
-70195.807604
 20
3148.954698
 30
0.0
 11
-70195.807604
 21
3147.954698
 31
0.0
  0
LINE
  5
3653
330
431C
100
AcDbEntity
  8
STRUCTURES TEXT
 62
    92
370
    53
100
AcDbLine
 10
-70195.807604
 20
3115.454698
 30
0.0
 11
-70195.807604
 21
3114.454698
 31
0.0
  0
LINE
  5
34F1
330
431C
100
AcDbEntity
  8
STRUCTURES TEXT
  6
Continuous
 62
    92
370
    53
100
AcDbLine
 10
-70025.600886
 20
3199.01157
 30
0.0
 11
-70025.600886
 21
3167.51157
 31
0.0
  0
LINE
  5
34F2
330
431C
100
AcDbEntity
  8
Level 2
100
AcDbLine
 10
-69982.100886
 20
3190.76157
 30
0.0
 11
-69979.100886
 21
3187.76157
 31
0.0
  0
LINE
  5
34F3
330
431C
100
AcDbEntity
  8
Level 2
100
AcDbLine
 10
-70018.100886
 20
3178.76157
 30
0.0
 11
-70015.100886
 21
3175.76157
 31
0.0
  0
LINE
  5
34F4
330
431C
100
AcDbEntity
  8
Level 2
100
AcDbLine
 10
-70018.100886
 20
3187.76157
 30
0.0
 11
-70015.100886
 21
3190.76157
 31
0.0
  0
LINE
  5
34F5
330
431C
100
AcDbEntity
  8
Level 2
100
AcDbLine
 10
-70018.100886
 20
3187.76157
 30
0.0
 11
-70018.100886
 21
3178.76157
 31
0.0
  0
LINE
  5
34F6
330
431C
100
AcDbEntity
  8
Level 2
100
AcDbLine
 10
-69982.100886
 20
3175.76157
 30
0.0
 11
-69979.100886
 21
3178.76157
 31
0.0
  0
LINE
  5
34F7
330
431C
100
AcDbEntity
  8
Level 2
100
AcDbLine
 10
-70015.100886
 20
3175.76157
 30
0.0
 11
-69982.100886
 21
3175.76157
 31
0.0
  0
LINE
  5
34F8
330
431C
100
AcDbEntity
  8
Level 2
100
AcDbLine
 10
-70015.100886
 20
3190.76157
 30
0.0
 11
-69982.100886
 21
3190.76157
 31
0.0
  0
LINE
  5
34F9
330
431C
100
AcDbEntity
  8
Level 2
100
AcDbLine
 10
-69979.100886
 20
3187.76157
 30
0.0
 11
-69979.100886
 21
3178.76157
 31
0.0
  0
ARC
  5
34FA
330
431C
100
AcDbEntity
  8
STRUCTURES TEXT
  6
Continuous
 62
    92
370
    53
100
AcDbCircle
 10
-70022.600886
 20
3167.51157
 30
0.0
 40
0.375
100
AcDbArc
 50
0.0
 51
180.0
  0
LINE
  5
34FB
330
431C
100
AcDbEntity
  8
STRUCTURES TEXT
  6
Continuous
 62
    92
370
    53
100
AcDbLine
 10
-70025.600886
 20
3167.51157
 30
0.0
 11
-70022.975886
 21
3167.51157
 31
0.0
  0
LINE
  5
34FC
330
431C
100
AcDbEntity
  8
STRUCTURES TEXT
  6
Continuous
 62
    92
370
    53
100
AcDbLine
 10
-70022.225886
 20
3167.51157
 30
0.0
 11
-69971.600886
 21
3167.51157
 31
0.0
  0
LINE
  5
34FD
330
431C
100
AcDbEntity
  8
Level 2
370
   100
100
AcDbLine
 10
-70016.600886
 20
3170.638591
 30
0.0
 11
-70016.600886
 21
3199.01157
 31
0.0
  0
LINE
  5
34FE
330
431C
100
AcDbEntity
  8
STRUCTURES TEXT
  6
Continuous
 62
   254
370
   100
100
AcDbLine
 10
-70016.600886
 20
3199.01157
 30
0.0
 11
-70016.600886
 21
3205.008572
 31
0.0
  0
LINE
  5
34FF
330
431C
100
AcDbEntity
  8
Level 2
370
   100
100
AcDbLine
 10
-69980.600886
 20
3170.571723
 30
0.0
 11
-69980.600886
 21
3199.01157
 31
0.0
  0
LINE
  5
3500
330
431C
100
AcDbEntity
  8
STRUCTURES TEXT
  6
Continuous
 62
   254
370
   100
100
AcDbLine
 10
-69980.600886
 20
3199.01157
 30
0.0
 11
-69980.600886
 21
3204.941704
 31
0.0
  0
POINT
  5
3501
330
431C
100
AcDbEntity
  8
STRUCTURES TEXT
  6
Continuous
 62
    92
370
    13
100
AcDbPoint
 10
-69971.600281
 20
3186.855891
 30
0.0
  0
LINE
  5
3502
330
431C
100
AcDbEntity
  8
STRUCTURES TEXT
  6
Continuous
 62
    92
370
   100
100
AcDbLine
 10
-69972.171781
 20
3192.951891
 30
0.0
 11
-69972.743281
 21
3192.380391
 31
0.0
  0
LINE
  5
3503
330
431C
100
AcDbEntity
  8
STRUCTURES TEXT
  6
Continuous
 62
    92
370
    53
100
AcDbLine
 10
-69971.600281
 20
3186.855891
 30
0.0
 11
-69972.743281
 21
3187.998891
 31
0.0
  0
POINT
  5
3504
330
431C
100
AcDbEntity
  8
STRUCTURES TEXT
  6
Continuous
 62
    92
370
    13
100
AcDbPoint
 10
-69972.743281
 20
3187.998891
 30
0.0
  0
LINE
  5
3505
330
431C
100
AcDbEntity
  8
STRUCTURES TEXT
  6
Continuous
 62
    92
370
    53
100
AcDbLine
 10
-69972.743281
 20
3192.380391
 30
0.0
 11
-69972.743281
 21
3187.998891
 31
0.0
  0
LINE
  5
3509
330
431C
100
AcDbEntity
  8
STRUCTURES TEXT
  6
Continuous
 62
    92
370
    53
100
AcDbLine
 10
-69971.600281
 20
3186.855891
 30
0.0
 11
-69971.600281
 21
3167.51157
 31
0.0
  0
LINE
  5
350A
330
431C
100
AcDbEntity
  8
STRUCTURES TEXT
  6
Continuous
 62
    92
370
    53
100
AcDbLine
 10
-69972.171781
 20
3199.047891
 30
0.0
 11
-69972.171781
 21
3192.951891
 31
0.0
  0
LINE
  5
350B
330
431C
100
AcDbEntity
  8
STRUCTURES TEXT
  6
Continuous
 62
    92
370
    53
100
AcDbLine
 10
-70025.600886
 20
3199.01157
 30
0.0
 11
-69972.171781
 21
3199.01157
 31
0.0
  0
LINE
  5
3515
330
431C
100
AcDbEntity
  8
Level 2
100
AcDbLine
 10
-69982.081776
 20
3199.014777
 30
0.0
 11
-69982.081776
 21
3196.014777
 31
0.0
  0
LINE
  5
3516
330
431C
100
AcDbEntity
  8
STRUCTURES TEXT
  6
Continuous
 62
   254
370
    40
100
AcDbLine
 10
-69982.081776
 20
3199.014777
 30
0.0
 11
-69979.081776
 21
3199.014777
 31
0.0
  0
LINE
  5
3517
330
431C
100
AcDbEntity
  8
Level 2
100
AcDbLine
 10
-69979.081776
 20
3199.014777
 30
0.0
 11
-69979.081776
 21
3196.014777
 31
0.0
  0
LINE
  5
3518
330
431C
100
AcDbEntity
  8
Level 2
100
AcDbLine
 10
-69982.081776
 20
3196.014777
 30
0.0
 11
-69979.081776
 21
3196.014777
 31
0.0
  0
LINE
  5
351A
330
431C
100
AcDbEntity
  8
Level 2
100
AcDbLine
 10
-69980.019276
 20
3196.014777
 30
0.0
 11
-69980.019276
 21
3199.014777
 31
0.0
  0
LINE
  5
351B
330
431C
100
AcDbEntity
  8
Level 2
100
AcDbLine
 10
-69981.144276
 20
3196.014777
 30
0.0
 11
-69981.144276
 21
3199.014777
 31
0.0
  0
LINE
  5
351C
330
431C
100
AcDbEntity
  8
Level 2
100
AcDbLine
 10
-70018.081776
 20
3199.014777
 30
0.0
 11
-70018.081776
 21
3196.014777
 31
0.0
  0
LINE
  5
351D
330
431C
100
AcDbEntity
  8
STRUCTURES TEXT
  6
Continuous
 62
   254
370
    40
100
AcDbLine
 10
-70018.081776
 20
3199.014777
 30
0.0
 11
-70015.081776
 21
3199.014777
 31
0.0
  0
LINE
  5
351E
330
431C
100
AcDbEntity
  8
Level 2
100
AcDbLine
 10
-70015.081776
 20
3199.014777
 30
0.0
 11
-70015.081776
 21
3196.014777
 31
0.0
  0
LINE
  5
351F
330
431C
100
AcDbEntity
  8
Level 2
100
AcDbLine
 10
-70018.081776
 20
3196.014777
 30
0.0
 11
-70015.081776
 21
3196.014777
 31
0.0
  0
LINE
  5
3521
330
431C
100
AcDbEntity
  8
Level 2
100
AcDbLine
 10
-70016.019276
 20
3196.014777
 30
0.0
 11
-70016.019276
 21
3199.014777
 31
0.0
  0
LINE
  5
3522
330
431C
100
AcDbEntity
  8
Level 2
100
AcDbLine
 10
-70017.144276
 20
3196.014777
 30
0.0
 11
-70017.144276
 21
3199.014777
 31
0.0
  0
LINE
  5
3654
330
431C
100
AcDbEntity
  8
STRUCTURES TEXT
  6
Continuous
 62
    92
370
    53
100
AcDbLine
 10
-70016.781537
 20
3141.567449
 30
0.0
 11
-70016.781537
 21
3110.067449
 31
0.0
  0
LINE
  5
3655
330
431C
100
AcDbEntity
  8
STRUCTURES TEXT
  6
DGN Style 7
 62
     2
370
    30
100
AcDbLine
 10
-70003.281537
 20
3140.071046
 30
0.0
 11
-70003.281537
 21
3147.497583
 31
0.0
  0
LINE
  5
3656
330
431C
100
AcDbEntity
  8
STRUCTURES TEXT
  6
Continuous
 62
    92
370
    53
100
AcDbLine
 10
-70016.781537
 20
3110.067449
 30
0.0
 11
-69973.509744
 21
3110.067449
 31
0.0
  0
LINE
  5
3657
330
431C
100
AcDbEntity
  8
STRUCTURES TEXT
  6
Continuous
 62
    92
370
    53
100
AcDbLine
 10
-70016.781537
 20
3141.567449
 30
0.0
 11
-69973.509744
 21
3141.567449
 31
0.0
  0
LINE
  5
3658
330
431C
100
AcDbEntity
  8
STRUCTURES TEXT
  6
Continuous
 62
    92
370
    53
100
AcDbLine
 10
-70016.781537
 20
3135.507769
 30
0.0
 11
-69973.509744
 21
3135.507769
 31
0.0
  0
LINE
  5
3659
330
431C
100
AcDbEntity
  8
STRUCTURES TEXT
  6
Continuous
 62
    92
370
    53
100
AcDbLine
 10
-70016.781537
 20
3134.936269
 30
0.0
 11
-69973.509744
 21
3134.936269
 31
0.0
  0
LINE
  5
365A
330
431C
100
AcDbEntity
  8
STRUCTURES TEXT
  6
Continuous
 62
    92
370
    53
100
AcDbLine
 10
-70016.781537
 20
3130.554769
 30
0.0
 11
-69973.509744
 21
3130.554769
 31
0.0
  0
LINE
  5
365B
330
431C
100
AcDbEntity
  8
STRUCTURES TEXT
  6
Continuous
 62
    92
370
    53
100
AcDbLine
 10
-70016.781537
 20
3129.411769
 30
0.0
 11
-69973.509744
 21
3129.411769
 31
0.0
  0
LWPOLYLINE
  5
365C
330
431C
100
AcDbEntity
  8
Level 5
  6
Continuous
 62
    92
370
    53
100
AcDbPolyline
 90
        6
 70
   128
 43
0.0
 10
-69973.509744
 20
3144.063793
 10
-69973.509744
 20
3126.365619
 10
-69972.195744
 20
3126.365619
 10
-69974.823744
 20
3123.737619
 10
-69973.509744
 20
3123.737619
 10
-69973.509744
 20
3106.039444
  0
LINE
  5
365D
330
431C
100
AcDbEntity
  8
Level 2
100
AcDbLine
 10
-70000.911961
 20
3141.567449
 30
0.0
 11
-69977.111917
 21
3112.317449
 31
0.0
  0
ARC
  5
365E
330
431C
100
AcDbEntity
  8
STRUCTURES TEXT
  6
Continuous
 62
   254
370
    53
100
AcDbCircle
 10
-70003.316061
 20
3140.982428
 30
0.0
 40
2.25
100
AcDbArc
 50
32.30012
 51
154.311857
  0
LINE
  5
365F
330
431C
100
AcDbEntity
  8
Level 2
100
AcDbLine
 10
-70005.464224
 20
3141.567449
 30
0.0
 11
-70014.497863
 21
3112.317449
 31
0.0
  0
LINE
  5
3660
330
431C
100
AcDbEntity
  8
Level 2
100
AcDbLine
 10
-70003.891253
 20
3141.512605
 30
0.0
 11
-70004.776376
 21
3138.646151
 31
0.0
  0
LINE
  5
3661
330
431C
100
AcDbEntity
  8
Level 2
100
AcDbLine
 10
-70007.64283
 20
3139.531275
 30
0.0
 11
-70004.776376
 21
3138.646151
 31
0.0
  0
LINE
  5
3662
330
431C
100
AcDbEntity
  8
Level 2
100
AcDbLine
 10
-69997.820692
 20
3140.208911
 30
0.0
 11
-70000.147841
 21
3138.315665
 31
0.0
  0
LINE
  5
3663
330
431C
100
AcDbEntity
  8
Level 2
100
AcDbLine
 10
-70000.147841
 20
3138.315665
 30
0.0
 11
-70002.793323
 21
3141.567449
 31
0.0
  0
LINE
  5
3664
330
431C
100
AcDbEntity
  8
Level 2
100
AcDbLine
 10
-70001.584762
 20
3141.567449
 30
0.0
 11
-69999.420607
 21
3138.907304
 31
0.0
  0
LINE
  5
3665
330
431C
100
AcDbEntity
  8
Level 2
100
AcDbLine
 10
-69997.820692
 20
3140.208911
 30
0.0
 11
-69998.925928
 21
3141.567449
 31
0.0
  0
LINE
  5
3667
330
431C
100
AcDbEntity
  8
Level 2
100
AcDbLine
 10
-70000.134489
 20
3141.567449
 30
0.0
 11
-69998.547926
 21
3139.617271
 31
0.0
  0
LINE
  5
3668
330
431C
100
AcDbEntity
  8
Level 2
100
AcDbLine
 10
-70007.014086
 20
3141.567449
 30
0.0
 11
-70007.64283
 21
3139.531275
 31
0.0
  0
LINE
  5
3669
330
431C
100
AcDbEntity
  8
Level 2
100
AcDbLine
 10
-70005.672143
 20
3138.922752
 30
0.0
 11
-70004.855495
 21
3141.567449
 31
0.0
  0
LINE
  5
366A
330
431C
100
AcDbEntity
  8
Level 2
100
AcDbLine
 10
-70006.747063
 20
3139.254674
 30
0.0
 11
-70006.032908
 21
3141.567449
 31
0.0
  0
MTEXT
  5
3671
330
431C
100
AcDbEntity
  8
STRUCTURES TEXT
  6
Continuous
370
    30
100
AcDbMText
 10
-70279.416769
 20
3233.435775
 30
0.0
 40
1.32
 41
0.0
 71
     8
 72
     1
  1
\Fstraight_squash.shx;\{ BEARING
  7
Style 1
 73
     2
 44
0.722892
  0
MTEXT
  5
3672
102
{ACAD_XDICTIONARY
360
4366
102
}
330
431C
100
AcDbEntity
  8
STRUCTURES TEXT
  6
Continuous
370
    30
100
AcDbMText
 10
-70353.8311
 20
3228.862576
 30
0.0
 40
1.32
 41
0.0
 71
     7
 72
     1
  1
\Fstraight_squash.shx;SEAL JOINT WITH HOT POUR\PJOINT SEAL MATERIAL MEETING\PTHE REQUIREMENTS OF SUB-SECT\P708.3.  MIN. DEPTH OF SEAL - 1"
  7
Style 1
 73
     2
 44
0.9
  0
MTEXT
  5
3677
102
{ACAD_XDICTIONARY
360
4368
102
}
330
431C
100
AcDbEntity
  8
STRUCTURES TEXT
  6
Continuous
370
    30
100
AcDbMText
 10
-70353.931402
 20
3207.595794
 30
0.0
 40
1.32
 41
0.0
 71
     7
 72
     1
  1
\Fstraight_squash.shx;PREFORMED JOINT FILLER MEETING\PTHE REQUIREMENTS OF SUB-SECT.\P708.1.1 (TYPE 1 SPONGE RUBBER - NO\PCOLOR REQUIREMENT).  CONTINUOUS\PFULL WIDTH OF DECK PLUS 1" EXT.\PEACH SIDE.
  7
Style 1
 73
     2
 44
0.9
  0
MTEXT
  5
367E
102
{ACAD_XDICTIONARY
360
436A
102
}
330
431C
100
AcDbEntity
  8
STRUCTURES TEXT
  6
Continuous
370
    30
100
AcDbMText
 10
-70353.028688
 20
3179.110168
 30
0.0
 40
1.32
 41
0.0
 71
     7
 72
     1
  3
\Fstraight_squash.shx;PREFORMED JOINT FILLER MEETING\PTHE REQUIREMENTS OF SUB-SECT.\P708.1.1 (TYPE 1 SPONGE RUBBER - NO\PCOLOR REQUIREMENT).  CONTINUOUS\PFULL WIDTH OF DECK PLUS 1" EXT.\PPAST EACH FACIA BEAM.  THICKNESS\PSHALL BE BEARING PAD THICKNES
  1
S\PPLUS 1{\T1.0;\W0.7x;\H0.7x;\S1#4;}".
  7
Style 1
 73
     2
 44
0.9
  0
MTEXT
  5
3687
102
{ACAD_XDICTIONARY
360
436C
102
}
330
431C
100
AcDbEntity
  8
STRUCTURES TEXT
  6
Continuous
370
    30
100
AcDbMText
 10
-70255.460403
 20
3214.855115
 30
0.0
 40
1.32
 41
0.0
 71
     7
 72
     1
  1
\Fstraight_squash.shx;2" ~ ANCHOR SLEEVE.  MATERIAL SHALL BE GALV. STEEL PIPE\PMEETING THE REQUIREMENTS OF AASHTO M232 OR PVC PIPE\PMEETING THE REQUIREMENTS OF SUB-SECTION 714.22.  ANCHOR\PSLEEVE LENGTH SHALL BE DEPTH OF BEAM MINUS 3".\P 
  7
Style 1
 73
     2
 44
0.9
  0
MTEXT
  5
368C
102
{ACAD_XDICTIONARY
360
436E
102
}
330
431C
100
AcDbEntity
  8
STRUCTURES TEXT
  6
Continuous
370
    30
100
AcDbMText
 10
-70256.312966
 20
3206.429789
 30
0.0
 40
1.32
 41
0.0
 71
     7
 72
     1
  1
\Fstraight_squash.shx;1" ~ x 2'-0" LONG GALV. NO. 8 DEFORMED REBAR (GR. 60).  \PDRILL, SET AND GROUT EACH ANCHOR BOLT 1 FOOT INTO\PBRIDGE SEAT.  GROUT SHALL BE IN ACCORDANCE WITH\PSUB-SECT. 715.5.
  7
Style 1
 73
     2
 44
0.9
  0
MTEXT
  5
3694
102
{ACAD_XDICTIONARY
360
4370
102
}
330
431C
100
AcDbEntity
  8
STRUCTURES TEXT
  6
Continuous
370
    30
100
AcDbMText
 10
-70256.162514
 20
3228.696723
 30
0.0
 40
1.32
 41
0.0
 71
     7
 72
     1
  3
\FAASHTO_BRADD_FONT_5.shx;AT FIXED END FILL 2" ~ ANCHOR HOLE WITH PORTLAND CEMENT\PMORTAR MEETING THE REQUIREMENTS OF SUB-SECT. 715.5.\P\PAT EXPANSION END FILL 2" ~ ANCHOR HOLE WITH HOT POUR\PBITUMINOUS JOINT FILLER MEETING THE REQUIREMENTS OF\PSUB-S
  1
ECT. 708.3.
  7
Style 1
 73
     2
 44
0.9
  0
MTEXT
  5
369A
330
431C
100
AcDbEntity
  8
STRUCTURES TEXT
  6
Continuous
370
    30
100
AcDbMText
 10
-70304.05648
 20
3231.100798
 30
0.0
 40
1.32
 41
0.0
 71
     7
 72
     1
  1
\Fstraight_squash.shx;JOINT
  7
Style 1
 73
     2
 44
0.722892
  0
MTEXT
  5
369B
330
431C
100
AcDbEntity
  8
STRUCTURES TEXT
  6
Continuous
370
    30
100
AcDbMText
 10
-70286.604019
 20
3178.241907
 30
0.0
 40
1.32
 41
0.0
 71
     7
 72
     1
  1
\Fstraight_squash.shx;MIN.
  7
Style 1
 73
     2
 44
0.722892
  0
MTEXT
  5
369D
102
{ACAD_XDICTIONARY
360
4372
102
}
330
431C
100
AcDbEntity
  8
STRUCTURES TEXT
  6
Continuous
370
    30
100
AcDbMText
 10
-70273.464523
 20
3181.153811
 30
0.0
 40
1.32
 41
0.0
 71
     7
 72
     1
  1
\Fstraight_squash.shx;ELASTOMERIC BEARING PAD\PSEE SHEET BR-B102B FOR \PDETAILS
  7
Style 1
 73
     2
 44
0.9
  0
LINE
  5
36A2
330
431C
100
AcDbEntity
  8
Level 3
  6
Continuous
 62
     2
370
    30
100
AcDbLine
 10
-70274.045067
 20
3201.067301
 30
0.0
 11
-70274.045067
 21
3190.107196
 31
0.0
  0
SOLID
  5
36A3
330
431C
100
AcDbEntity
  8
Level 3
  6
Continuous
 62
     2
370
    30
100
AcDbTrace
 10
70274.373192
 20
3199.754801
 30
0.0
 11
70274.045067
 21
3201.067301
 31
0.0
 12
70273.716942
 22
3199.754801
 32
0.0
 13
70273.716942
 23
3199.754801
 33
0.0
210
0.0
220
0.0
230
-1.0
  0
SOLID
  5
36A4
330
431C
100
AcDbEntity
  8
Level 3
  6
Continuous
 62
     2
370
    30
100
AcDbTrace
 10
-70273.716942
 20
3191.419696
 30
0.0
 11
-70274.045067
 21
3190.107196
 31
0.0
 12
-70274.373192
 22
3191.419696
 32
0.0
 13
-70274.373192
 23
3191.419696
 33
0.0
  0
LINE
  5
36A5
330
431C
100
AcDbEntity
  8
Level 3
  6
Continuous
 62
     2
370
    30
100
AcDbLine
 10
-70281.264601
 20
3201.067301
 30
0.0
 11
-70273.388817
 21
3201.067301
 31
0.0
  0
LINE
  5
36A6
330
431C
100
AcDbEntity
  8
Level 3
  6
Continuous
 62
     2
370
    30
100
AcDbLine
 10
-70286.783551
 20
3190.107196
 30
0.0
 11
-70273.388817
 21
3190.107196
 31
0.0
  0
TEXT
  5
36A7
330
431C
100
AcDbEntity
  8
Level 3
  6
Continuous
 62
     1
370
    30
100
AcDbText
 10
-70293.900698
 20
3231.275599
 30
0.0
 40
1.3125
  1
9" 
  7
Style-straight_squash
 72
     1
 11
-70292.420851
 21
3231.931849
 31
0.0
100
AcDbText
 73
     2
  0
LINE
  5
36A8
330
431C
100
AcDbEntity
  8
Level 3
  6
Continuous
 62
     2
370
    30
100
AcDbLine
 10
-70296.920851
 20
3230.619349
 30
0.0
 11
-70287.920851
 21
3230.619349
 31
0.0
  0
SOLID
  5
36A9
330
431C
100
AcDbEntity
  8
Level 3
  6
Continuous
 62
     2
370
    30
100
AcDbTrace
 10
-70295.608351
 20
3230.291224
 30
0.0
 11
-70296.920851
 21
3230.619349
 31
0.0
 12
-70295.608351
 22
3230.947474
 32
0.0
 13
-70295.608351
 23
3230.947474
 33
0.0
  0
SOLID
  5
36AA
330
431C
100
AcDbEntity
  8
Level 3
  6
Continuous
 62
     2
370
    30
100
AcDbTrace
 10
70289.233351
 20
3230.947474
 30
0.0
 11
70287.920851
 21
3230.619349
 31
0.0
 12
70289.233351
 22
3230.291224
 32
0.0
 13
70289.233351
 23
3230.291224
 33
0.0
210
0.0
220
0.0
230
-1.0
  0
LINE
  5
36AB
330
431C
100
AcDbEntity
  8
Level 3
  6
Continuous
 62
     2
370
    30
100
AcDbLine
 10
-70296.920851
 20
3222.347354
 30
0.0
 11
-70296.920851
 21
3231.275599
 31
0.0
  0
LINE
  5
36AC
330
431C
100
AcDbEntity
  8
Level 3
  6
Continuous
 62
     2
370
    30
100
AcDbLine
 10
-70287.920851
 20
3229.420467
 30
0.0
 11
-70287.920851
 21
3231.275599
 31
0.0
  0
LINE
  5
36B5
330
431C
100
AcDbEntity
  8
Level 3
  6
Continuous
 62
     6
370
    30
100
AcDbLine
 10
-70289.30319
 20
3181.088981
 30
0.0
 11
-70287.99069
 21
3181.088981
 31
0.0
  0
LINE
  5
36B6
330
431C
100
AcDbEntity
  8
Level 3
  6
Continuous
 62
     2
370
    30
100
AcDbLine
 10
-70287.99069
 20
3181.088981
 30
0.0
 11
-70281.98003
 21
3181.088981
 31
0.0
  0
LINE
  5
36B7
330
431C
100
AcDbEntity
  8
Level 3
  6
Continuous
 62
     6
370
    30
100
AcDbLine
 10
-70280.66753
 20
3181.088981
 30
0.0
 11
-70281.98003
 21
3181.088981
 31
0.0
  0
SOLID
  5
36B8
330
431C
100
AcDbEntity
  8
Level 3
  6
Continuous
 62
     2
370
    30
100
AcDbTrace
 10
70289.30319
 20
3181.417106
 30
0.0
 11
70287.99069
 21
3181.088981
 31
0.0
 12
70289.30319
 22
3180.760856
 32
0.0
 13
70289.30319
 23
3180.760856
 33
0.0
210
0.0
220
0.0
230
-1.0
  0
SOLID
  5
36B9
330
431C
100
AcDbEntity
  8
Level 3
  6
Continuous
 62
     2
370
    30
100
AcDbTrace
 10
-70280.66753
 20
3180.760856
 30
0.0
 11
-70281.98003
 21
3181.088981
 31
0.0
 12
-70280.66753
 22
3181.417106
 32
0.0
 13
-70280.66753
 23
3181.417106
 33
0.0
  0
LINE
  5
36BA
330
431C
100
AcDbEntity
  8
Level 3
  6
Continuous
 62
     2
370
    30
100
AcDbLine
 10
-70287.99069
 20
3189.51559
 30
0.0
 11
-70287.99069
 21
3180.432731
 31
0.0
  0
LINE
  5
36BB
330
431C
100
AcDbEntity
  8
Level 3
  6
Continuous
 62
     2
370
    30
100
AcDbLine
 10
-70281.98003
 20
3187.476126
 30
0.0
 11
-70281.98003
 21
3180.432731
 31
0.0
  0
MTEXT
  5
36BC
330
431C
100
AcDbEntity
  8
STRUCTURES TEXT
  6
Continuous
370
    30
100
AcDbMText
 10
-70276.272965
 20
3195.79783
 30
0.0
 40
1.32
 41
0.0
 71
     5
 72
     1
  1
\Fstraight_squash.shx;12"
  7
Style 1
 11
2.679489658502661E-8
 21
0.9999999999999997
 31
0.0
 73
     2
 44
0.722892
  0
MTEXT
  5
36BD
330
431C
100
AcDbEntity
  8
STRUCTURES TEXT
  6
Continuous
370
    30
100
AcDbMText
 10
-70271.157588
 20
3195.79783
 30
0.0
 40
1.32
 41
0.0
 71
     5
 72
     1
  1
\Fstraight_squash.shx;EMBEDMENT
  7
Style 1
 11
2.679489658502661E-8
 21
0.9999999999999997
 31
0.0
 73
     2
 44
0.722892
  0
MTEXT
  5
36BE
330
431C
100
AcDbEntity
  8
STRUCTURES TEXT
  6
Continuous
370
    30
100
AcDbMText
 10
-70284.999195
 20
3182.758635
 30
0.0
 40
1.32
 41
0.0
 71
     5
 72
     1
  1
\Fstraight_squash.shx;6"
  7
Style 1
 73
     2
 44
0.722892
  0
LINE
  5
36C0
330
431C
100
AcDbEntity
  8
STRUCTURES TEXT
  6
Continuous
 62
     2
370
    30
100
AcDbLine
 10
-70315.315324
 20
3193.917177
 30
0.0
 11
-70315.315324
 21
3179.072555
 31
0.0
  0
LEADER
  5
36C1
330
431C
100
AcDbEntity
  8
Level 3
  6
Continuous
 62
     2
370
    30
100
AcDbLeader
  3
Tim
 74
     0
 76
     3
 10
-70295.255024
 20
3201.339488
 30
0.0
 10
-70309.196932
 20
3186.494866
 30
0.0
 10
-70315.315324
 20
3186.494866
 30
0.0
1001
ACAD
1000
DSTYLE
1002
{
1070
   371
1070
    -2
1070
   147
1040
0.0
1070
   176
1070
     0
1002
}
  0
LINE
  5
36C2
330
431C
100
AcDbEntity
  8
STRUCTURES TEXT
  6
Continuous
 62
     2
370
    30
100
AcDbLine
 10
-70316.017434
 20
3218.992552
 30
0.0
 11
-70316.017434
 21
3208.059689
 31
0.0
  0
LINE
  5
36C3
330
431C
100
AcDbEntity
  8
STRUCTURES TEXT
  6
Continuous
 62
     2
370
    30
100
AcDbLine
 10
-70318.023464
 20
3236.043808
 30
0.0
 11
-70318.023464
 21
3228.119989
 31
0.0
  0
LINE
  5
36C4
330
431C
100
AcDbEntity
  8
STRUCTURES TEXT
  6
Continuous
 62
     2
370
    30
100
AcDbLine
 10
-70257.341056
 20
3239.303606
 30
0.0
 11
-70257.341056
 21
3226.966522
 31
0.0
  0
LINE
  5
36C5
330
431C
100
AcDbEntity
  8
STRUCTURES TEXT
  6
Continuous
 62
     2
370
    30
100
AcDbLine
 10
-70256.538644
 20
3223.857175
 30
0.0
 11
-70256.538644
 21
3216.334563
 31
0.0
  0
LINE
  5
36C6
330
431C
100
AcDbEntity
  8
STRUCTURES TEXT
  6
Continuous
 62
     2
370
    30
100
AcDbLine
 10
-70257.441358
 20
3213.827025
 30
0.0
 11
-70257.441358
 21
3206.304412
 31
0.0
  0
LEADER
  5
36C7
330
431C
100
AcDbEntity
  8
Level 3
  6
Continuous
 62
     2
370
    30
100
AcDbLeader
  3
Tim
 74
     0
 76
     3
 10
-70287.732411
 20
3219.393758
 30
0.0
 10
-70263.660051
 20
3233.135064
 30
0.0
 10
-70257.341056
 20
3233.135064
 30
0.0
1001
ACAD
1000
DSTYLE
1002
{
1070
   371
1070
    -2
1070
   147
1040
0.0
1070
   176
1070
     0
1002
}
  0
LEADER
  5
36C9
330
431C
100
AcDbEntity
  8
Level 3
  6
Continuous
 62
     2
370
    30
100
AcDbLeader
  3
Tim
 74
     0
 76
     3
 10
-70286.629095
 20
3214.980492
 30
0.0
 10
-70264.061257
 20
3220.095869
 30
0.0
 10
-70256.538644
 20
3220.095869
 30
0.0
1001
ACAD
1000
DSTYLE
1002
{
1070
   371
1070
    -2
1070
   147
1040
0.0
1070
   176
1070
     0
1002
}
  0
LEADER
  5
36CA
330
431C
100
AcDbEntity
  8
Level 3
  6
Continuous
 62
     2
370
    30
100
AcDbLeader
  3
Tim
 74
     0
 76
     3
 10
-70287.933014
 20
3203.947327
 30
0.0
 10
-70263.760352
 20
3210.065719
 30
0.0
 10
-70257.441358
 20
3210.065719
 30
0.0
1001
ACAD
1000
DSTYLE
1002
{
1070
   371
1070
    -2
1070
   147
1040
0.0
1070
   176
1070
     0
1002
}
  0
LEADER
  5
36CB
330
431C
100
AcDbEntity
  8
Level 3
  6
Continuous
 62
     2
370
    30
100
AcDbLeader
  3
Tim
 74
     0
 76
     3
 10
-70285.726381
 20
3201.43979
 30
0.0
 10
-70277.802562
 20
3184.187932
 30
0.0
 10
-70274.492613
 20
3184.187932
 30
0.0
1001
ACAD
1000
DSTYLE
1002
{
1070
   371
1070
    -2
1070
   147
1040
0.0
1070
   176
1070
     0
1002
}
  0
MTEXT
  5
36CD
330
431C
100
AcDbEntity
  8
STRUCTURES TEXT
  6
Continuous
370
    30
100
AcDbMText
 10
-70153.102721
 20
3234.285371
 30
0.0
 40
1.32
 41
0.0
 71
     7
 72
     1
  1
\Fstraight_squash.shx;\{ BEARING
  7
Style 1
 73
     2
 44
0.722892
  0
MTEXT
  5
36CE
102
{ACAD_XDICTIONARY
360
4374
102
}
330
431C
100
AcDbEntity
  8
STRUCTURES TEXT
  6
Continuous
370
    30
100
AcDbMText
 10
-70236.018629
 20
3187.840578
 30
0.0
 40
1.32
 41
0.0
 71
     7
 72
     1
  1
\Fstraight_squash.shx;MEMBRANE WATERPROOFING IN ACCORDANCE \PWITH SUB-SECT. 619.  WIDTH OF MEMBRANE SHALL\PBE FULL WIDTH OF DECK PLUS 2" LAP ONTO \PWINGWALLS.
  7
Style 1
 73
     2
 44
0.9
  0
LINE
  5
36D3
330
431C
100
AcDbEntity
  8
STRUCTURES TEXT
 62
     2
100
AcDbLine
 10
-70185.469807
 20
3195.059152
 30
0.0
 11
-70185.469807
 21
3187.937745
 31
0.0
  0
LINE
  5
36D6
330
431C
100
AcDbEntity
  8
Level 3
  6
Continuous
 62
     2
370
    30
100
AcDbLine
 10
-70176.509539
 20
3192.466178
 30
0.0
 11
-70176.509539
 21
3204.966178
 31
0.0
  0
SOLID
  5
36D7
330
431C
100
AcDbEntity
  8
Level 3
  6
Continuous
 62
     2
370
    30
100
AcDbTrace
 10
-70176.181414
 20
3193.778678
 30
0.0
 11
-70176.509539
 21
3192.466178
 31
0.0
 12
-70176.837664
 22
3193.778678
 32
0.0
 13
-70176.837664
 23
3193.778678
 33
0.0
  0
SOLID
  5
36D8
330
431C
100
AcDbEntity
  8
Level 3
  6
Continuous
 62
     2
370
    30
100
AcDbTrace
 10
70176.837664
 20
3203.653678
 30
0.0
 11
70176.509539
 21
3204.966178
 31
0.0
 12
70176.181414
 22
3203.653678
 32
0.0
 13
70176.181414
 23
3203.653678
 33
0.0
210
0.0
220
0.0
230
-1.0
  0
LINE
  5
36D9
330
431C
100
AcDbEntity
  8
Level 3
  6
Continuous
 62
     2
370
    30
100
AcDbLine
 10
-70171.24929
 20
3192.466178
 30
0.0
 11
-70177.165789
 21
3192.466178
 31
0.0
  0
LINE
  5
36DA
330
431C
100
AcDbEntity
  8
Level 3
  6
Continuous
 62
     2
370
    30
100
AcDbLine
 10
-70171.24929
 20
3204.966178
 30
0.0
 11
-70177.165789
 21
3204.966178
 31
0.0
  0
MTEXT
  5
36DB
330
431C
100
AcDbEntity
  8
STRUCTURES TEXT
  6
Continuous
370
    30
100
AcDbMText
 10
-70177.074754
 20
3196.780994
 30
0.0
 40
1.32
 41
0.0
 71
     7
 72
     1
  1
\Fstraight_squash.shx;1'-0"
  7
Style 1
 11
2.679489658502661E-8
 21
0.9999999999999997
 31
0.0
 73
     2
 44
0.722892
  0
SOLID
  5
36E0
330
431C
100
AcDbEntity
  8
Level 3
  6
Continuous
 62
     2
370
    30
100
AcDbTrace
 10
70171.732756
 20
3197.431146
 30
0.0
 11
70170.458015
 21
3197.88431
 31
0.0
 12
70171.369533
 22
3196.884581
 32
0.0
 13
70171.369533
 23
3196.884581
 33
0.0
210
0.0
220
0.0
230
-1.0
  0
LWPOLYLINE
  5
36DF
330
431C
100
AcDbEntity
  8
Level 3
  6
Continuous
 62
     2
370
    30
100
AcDbPolyline
 90
        2
 70
   128
 43
0.0
 10
-70170.458015
 20
3197.88431
 10
-70174.844456
 20
3194.969271
  0
LWPOLYLINE
  5
36E1
330
431C
100
AcDbEntity
  8
Level 3
  6
Continuous
 62
     2
370
    30
100
AcDbPolyline
 90
        3
 70
   128
 43
0.0
 10
-70177.887545
 20
3192.946965
 10
-70181.023107
 20
3190.863205
 10
-70185.436373
 20
3190.863205
  0
LEADER
  5
36E2
330
431C
100
AcDbEntity
  8
Level 3
  6
Continuous
 62
     2
370
    30
100
AcDbLeader
  3
Tim
 74
     0
 76
     3
 10
-70158.09304
 20
3231.521493
 30
0.0
 10
-70156.574616
 20
3235.29677
 30
0.0
 10
-70153.966777
 20
3235.29677
 30
0.0
1001
ACAD
1000
DSTYLE
1002
{
1070
   371
1070
    -2
1070
   147
1040
0.0
1070
   176
1070
     0
1002
}
  0
MTEXT
  5
36E3
102
{ACAD_XDICTIONARY
360
4376
102
}
330
431C
100
AcDbEntity
  8
STRUCTURES TEXT
  6
Continuous
370
    30
100
AcDbMText
 10
-70133.730949
 20
3188.681648
 30
0.0
 40
1.32
 41
0.0
 71
     7
 72
     1
  1
\Fstraight_squash.shx;ELASTOMERIC BEARING PAD\PSEE SHEET BR-B102B FOR \PDETAILS
  7
Style 1
 73
     2
 44
0.9
  0
MTEXT
  5
36E7
102
{ACAD_XDICTIONARY
360
4378
102
}
330
431C
100
AcDbEntity
  8
STRUCTURES TEXT
  6
Continuous
370
    30
100
AcDbMText
 10
-70215.314727
 20
3169.080018
 30
0.0
 40
1.32
 41
0.0
 71
     7
 72
     1
  3
\Fstraight_squash.shx;PREFORMED JOINT FILLER MEETING\PTHE REQUIREMENTS OF SUB-SECT.\P708.1.1 (TYPE 1 SPONGE RUBBER - NO\PCOLOR REQUIREMENT).  CONTINUOUS\PFULL WIDTH OF DECK PLUS 1" EXT.\PPAST EACH FACIA BEAM.  THICKNESS\PSHALL BE BEARING PAD THICKNES
  1
S\PPLUS 1{\T1.0;\W0.7x;\H0.7x;\S1#4;}".
  7
Style 1
 73
     2
 44
0.9
  0
LINE
  5
36F0
330
431C
100
AcDbEntity
  8
STRUCTURES TEXT
  6
Continuous
 62
     2
370
    30
100
AcDbLine
 10
-70177.601363
 20
3183.887027
 30
0.0
 11
-70177.601363
 21
3169.042405
 31
0.0
  0
LEADER
  5
36F1
330
431C
100
AcDbEntity
  8
Level 3
  6
Continuous
 62
     2
370
    30
100
AcDbLeader
  3
Tim
 74
     0
 76
     3
 10
-70164.648887
 20
3204.930491
 30
0.0
 10
-70173.174514
 20
3176.14396
 30
0.0
 10
-70177.487479
 20
3176.14396
 30
0.0
1001
ACAD
1000
DSTYLE
1002
{
1070
   371
1070
    -2
1070
   147
1040
0.0
1070
   176
1070
     0
1002
}
  0
LEADER
  5
36F2
330
431C
100
AcDbEntity
  8
Level 3
  6
Continuous
 62
     2
370
    30
100
AcDbLeader
  3
Tim
 74
     0
 76
     3
 10
-70156.549541
 20
3204.955566
 30
0.0
 10
-70137.993763
 20
3191.013658
 30
0.0
 10
-70134.683813
 20
3191.013658
 30
0.0
1001
ACAD
1000
DSTYLE
1002
{
1070
   371
1070
    -2
1070
   147
1040
0.0
1070
   176
1070
     0
1002
}
  0
LINE
  5
36F3
330
431C
100
AcDbEntity
  8
STRUCTURES TEXT
  6
Continuous
 62
     2
370
    30
100
AcDbLine
 10
-70189.586347
 20
3239.710036
 30
0.0
 11
-70189.586347
 21
3228.175364
 31
0.0
  0
LINE
  5
36F4
330
431C
100
AcDbEntity
  8
STRUCTURES TEXT
  6
Continuous
 62
     2
370
    30
100
AcDbLine
 10
-70190.087855
 20
3224.313756
 30
0.0
 11
-70190.087855
 21
3216.089033
 31
0.0
  0
LINE
  5
36F5
330
431C
100
AcDbEntity
  8
STRUCTURES TEXT
  6
Continuous
 62
     2
370
    30
100
AcDbLine
 10
-70189.586347
 20
3213.827025
 30
0.0
 11
-70189.586347
 21
3206.304412
 31
0.0
  0
LEADER
  5
36F6
330
431C
100
AcDbEntity
  8
Level 3
  6
Continuous
 62
     2
370
    30
100
AcDbLeader
  3
Tim
 74
     0
 76
     3
 10
-70158.492882
 20
3223.611645
 30
0.0
 10
-70185.875192
 20
3233.9427
 30
0.0
 10
-70189.586347
 20
3233.9427
 30
0.0
1001
ACAD
1000
DSTYLE
1002
{
1070
   371
1070
    -2
1070
   147
1040
0.0
1070
   176
1070
     0
1002
}
  0
LEADER
  5
36F7
330
431C
100
AcDbEntity
  8
Level 3
  6
Continuous
 62
     2
370
    30
100
AcDbLeader
  3
Tim
 74
     0
 76
     3
 10
-70159.194993
 20
3218.997776
 30
0.0
 10
-70182.966448
 20
3220.201394
 30
0.0
 10
-70190.087855
 20
3220.201394
 30
0.0
1001
ACAD
1000
DSTYLE
1002
{
1070
   371
1070
    -2
1070
   147
1040
0.0
1070
   176
1070
     0
1002
}
  0
LEADER
  5
36F8
330
431C
100
AcDbEntity
  8
Level 3
  6
Continuous
 62
     2
370
    30
100
AcDbLeader
  3
Tim
 74
     0
 76
     2
 10
-70158.091676
 20
3211.274561
 30
0.0
 10
-70189.586347
 20
3210.065719
 30
0.0
1001
ACAD
1000
DSTYLE
1002
{
1070
   371
1070
    -2
1070
   147
1040
0.0
1070
   176
1070
     0
1002
}
  0
LINE
  5
36FF
330
431C
100
AcDbEntity
  8
STRUCTURES TEXT
  6
Continuous
 62
     2
370
    30
100
AcDbLine
 10
-70143.790248
 20
3067.410423
 30
0.0
 11
-70143.790248
 21
3069.501895
 31
0.0
  0
LINE
  5
3700
330
431C
100
AcDbEntity
  8
STRUCTURES TEXT
  6
Continuous
 62
     2
370
    30
100
AcDbLine
 10
-70143.790248
 20
3061.258598
 30
0.0
 11
-70143.790248
 21
3064.601981
 31
0.0
  0
LINE
  5
3701
330
431C
100
AcDbEntity
  8
STRUCTURES TEXT
  6
Continuous
 62
     2
370
    30
100
AcDbLine
 10
-70143.790248
 20
3051.027845
 30
0.0
 11
-70143.790248
 21
3059.051965
 31
0.0
  0
LINE
  5
36FD
330
431C
100
AcDbEntity
  8
STRUCTURES TEXT
  6
Continuous
 62
     2
370
    30
100
AcDbLine
 10
-70143.790248
 20
3041.265165
 30
0.0
 11
-70143.790248
 21
3048.687476
 31
0.0
  0
LINE
  5
3703
330
431C
100
AcDbEntity
  8
Level 3
  6
Continuous
 62
     2
370
    30
100
AcDbLine
 10
-70150.82237
 20
3072.38092
 30
0.0
 11
-70145.695248
 21
3072.38092
 31
0.0
  0
LINE
  5
3704
330
431C
100
AcDbEntity
  8
Level 3
  6
Continuous
 62
     2
370
    30
100
AcDbLine
 10
-70145.695248
 20
3072.38092
 30
0.0
 11
-70141.024975
 21
3072.38092
 31
0.0
  0
LINE
  5
3705
330
431C
100
AcDbEntity
  8
Level 3
  6
Continuous
 62
     2
370
     0
100
AcDbLine
 10
-70142.477748
 20
3072.38092
 30
0.0
 11
-70143.790248
 21
3072.38092
 31
0.0
  0
SOLID
  5
3706
330
431C
100
AcDbEntity
  8
Level 3
  6
Continuous
 62
     2
370
    30
100
AcDbTrace
 10
70147.007748
 20
3072.709045
 30
0.0
 11
70145.695248
 21
3072.38092
 31
0.0
 12
70147.007748
 22
3072.052795
 32
0.0
 13
70147.007748
 23
3072.052795
 33
0.0
210
0.0
220
0.0
230
-1.0
  0
SOLID
  5
3707
330
431C
100
AcDbEntity
  8
Level 3
  6
Continuous
 62
     2
370
    30
100
AcDbTrace
 10
-70142.477748
 20
3072.052795
 30
0.0
 11
-70143.790248
 21
3072.38092
 31
0.0
 12
-70142.477748
 22
3072.709045
 32
0.0
 13
-70142.477748
 23
3072.709045
 33
0.0
  0
LINE
  5
3708
330
431C
100
AcDbEntity
  8
Level 3
  6
Continuous
 62
     2
370
    30
100
AcDbLine
 10
-70145.695248
 20
3067.578743
 30
0.0
 11
-70145.695248
 21
3073.03717
 31
0.0
  0
LINE
  5
3709
330
431C
100
AcDbEntity
  8
Level 3
  6
Continuous
 62
     2
370
    30
100
AcDbLine
 10
-70143.790248
 20
3070.158145
 30
0.0
 11
-70143.790248
 21
3073.03717
 31
0.0
  0
LINE
  5
370B
330
431C
100
AcDbEntity
  8
Level 3
  6
Continuous
 62
     2
370
    30
100
AcDbLine
 10
-70150.521466
 20
3066.266243
 30
0.0
 11
-70142.02799
 21
3066.266243
 31
0.0
  0
LINE
  5
370C
330
431C
100
AcDbEntity
  8
Level 3
  6
Continuous
 62
     2
370
     0
100
AcDbLine
 10
-70145.695248
 20
3066.266243
 30
0.0
 11
-70144.742748
 21
3066.266243
 31
0.0
  0
LINE
  5
370D
330
431C
100
AcDbEntity
  8
Level 3
  6
Continuous
 62
     2
370
     0
100
AcDbLine
 10
-70143.430248
 20
3066.266243
 30
0.0
 11
-70144.742748
 21
3066.266243
 31
0.0
  0
SOLID
  5
370E
330
431C
100
AcDbEntity
  8
Level 3
  6
Continuous
 62
     2
370
    30
100
AcDbTrace
 10
70147.007748
 20
3066.594368
 30
0.0
 11
70145.695248
 21
3066.266243
 31
0.0
 12
70147.007748
 22
3065.938118
 32
0.0
 13
70147.007748
 23
3065.938118
 33
0.0
210
0.0
220
0.0
230
-1.0
  0
SOLID
  5
370F
330
431C
100
AcDbEntity
  8
Level 3
  6
Continuous
 62
     2
370
    30
100
AcDbTrace
 10
-70143.430248
 20
3065.938118
 30
0.0
 11
-70144.742748
 21
3066.266243
 31
0.0
 12
-70143.430248
 22
3066.594368
 32
0.0
 13
-70143.430248
 23
3066.594368
 33
0.0
  0
LINE
  5
3710
330
431C
100
AcDbEntity
  8
Level 3
  6
Continuous
 62
     2
370
    30
100
AcDbLine
 10
-70145.695248
 20
3049.699498
 30
0.0
 11
-70145.695248
 21
3066.922493
 31
0.0
  0
LINE
  5
3713
330
431C
100
AcDbEntity
  8
Level 3
  6
Continuous
 62
     2
370
    30
100
AcDbLine
 10
-70130.849945
 20
3061.450383
 30
0.0
 11
-70130.849945
 21
3049.995748
 31
0.0
  0
SOLID
  5
3714
330
431C
100
AcDbEntity
  8
Level 3
  6
Continuous
 62
     2
370
    30
100
AcDbTrace
 10
70131.17807
 20
3058.843248
 30
0.0
 11
70130.849945
 21
3060.155748
 31
0.0
 12
70130.52182
 22
3058.843248
 32
0.0
 13
70130.52182
 23
3058.843248
 33
0.0
210
0.0
220
0.0
230
-1.0
  0
LINE
  5
3715
330
431C
100
AcDbEntity
  8
Level 3
  6
Continuous
 62
     2
370
    30
100
AcDbLine
 10
-70136.965091
 20
3060.155748
 30
0.0
 11
-70130.193695
 21
3060.155748
 31
0.0
  0
LINE
  5
3716
330
431C
100
AcDbEntity
  8
Level 3
  6
Continuous
 62
     2
370
    30
100
AcDbLine
 10
-70136.965091
 20
3049.995748
 30
0.0
 11
-70130.193695
 21
3049.995748
 31
0.0
  0
LINE
  5
3718
330
431C
100
AcDbEntity
  8
Level 3
  6
Continuous
 62
     2
370
    30
100
AcDbLine
 10
-70130.849945
 20
3049.995748
 30
0.0
 11
-70130.849945
 21
3039.835748
 31
0.0
  0
SOLID
  5
3719
330
431C
100
AcDbEntity
  8
Level 3
  6
Continuous
 62
     2
370
    30
100
AcDbTrace
 10
70131.17807
 20
3048.683248
 30
0.0
 11
70130.849945
 21
3049.995748
 31
0.0
 12
70130.52182
 22
3048.683248
 32
0.0
 13
70130.52182
 23
3048.683248
 33
0.0
210
0.0
220
0.0
230
-1.0
  0
SOLID
  5
371A
330
431C
100
AcDbEntity
  8
Level 3
  6
Continuous
 62
     2
370
    30
100
AcDbTrace
 10
-70130.52182
 20
3041.148248
 30
0.0
 11
-70130.849945
 21
3039.835748
 31
0.0
 12
-70131.17807
 22
3041.148248
 32
0.0
 13
-70131.17807
 23
3041.148248
 33
0.0
  0
LINE
  5
371B
330
431C
100
AcDbEntity
  8
Level 3
  6
Continuous
 62
     2
370
    30
100
AcDbLine
 10
-70136.965091
 20
3039.835748
 30
0.0
 11
-70130.193695
 21
3039.835748
 31
0.0
  0
LINE
  5
371D
330
431C
100
AcDbEntity
  8
Level 3
  6
Continuous
 62
     2
370
    30
100
AcDbLine
 10
-70137.621341
 20
3061.450383
 30
0.0
 11
-70137.621341
 21
3049.995748
 31
0.0
  0
SOLID
  5
371E
330
431C
100
AcDbEntity
  8
Level 3
  6
Continuous
 62
     2
370
    30
100
AcDbTrace
 10
70137.949466
 20
3058.843248
 30
0.0
 11
70137.621341
 21
3060.155748
 31
0.0
 12
70137.293216
 22
3058.843248
 32
0.0
 13
70137.293216
 23
3058.843248
 33
0.0
210
0.0
220
0.0
230
-1.0
  0
LINE
  5
371F
330
431C
100
AcDbEntity
  8
Level 3
  6
Continuous
 62
     2
370
    30
100
AcDbLine
 10
-70144.086498
 20
3060.155748
 30
0.0
 11
-70136.965091
 21
3060.155748
 31
0.0
  0
LINE
  5
3720
330
431C
100
AcDbEntity
  8
Level 3
  6
Continuous
 62
     2
370
    30
100
AcDbLine
 10
-70144.086498
 20
3049.995748
 30
0.0
 11
-70136.965091
 21
3049.995748
 31
0.0
  0
LINE
  5
3722
330
431C
100
AcDbEntity
  8
Level 3
  6
Continuous
 62
     2
370
    30
100
AcDbLine
 10
-70137.621341
 20
3049.995748
 30
0.0
 11
-70137.621341
 21
3039.835748
 31
0.0
  0
SOLID
  5
3723
330
431C
100
AcDbEntity
  8
Level 3
  6
Continuous
 62
     2
370
    30
100
AcDbTrace
 10
70137.949466
 20
3048.683248
 30
0.0
 11
70137.621341
 21
3049.995748
 31
0.0
 12
70137.293216
 22
3048.683248
 32
0.0
 13
70137.293216
 23
3048.683248
 33
0.0
210
0.0
220
0.0
230
-1.0
  0
SOLID
  5
3724
330
431C
100
AcDbEntity
  8
Level 3
  6
Continuous
 62
     2
370
    30
100
AcDbTrace
 10
-70137.293216
 20
3041.148248
 30
0.0
 11
-70137.621341
 21
3039.835748
 31
0.0
 12
-70137.949466
 22
3041.148248
 32
0.0
 13
-70137.949466
 23
3041.148248
 33
0.0
  0
LINE
  5
3725
330
431C
100
AcDbEntity
  8
Level 3
  6
Continuous
 62
     2
370
    30
100
AcDbLine
 10
-70143.133998
 20
3039.835748
 30
0.0
 11
-70136.965091
 21
3039.835748
 31
0.0
  0
LINE
  5
3711
330
431C
100
AcDbEntity
  8
Level 3
  6
Continuous
 62
     2
370
    30
100
AcDbLine
 10
-70144.742748
 20
3061.325465
 30
0.0
 11
-70144.742748
 21
3066.922493
 31
0.0
  0
MTEXT
  5
3726
330
431C
100
AcDbEntity
  8
STRUCTURES TEXT
  6
Continuous
370
    30
100
AcDbMText
 10
-70148.714757
 20
3072.522639
 30
0.0
 40
1.32
 41
0.0
 71
     8
 72
     1
  1
\Fstraight_squash.shx;{\T1.0;\W0.7x;\H0.7x;\S3#4;}"
  7
Style 1
 73
     2
 44
0.722892
  0
MTEXT
  5
3727
330
431C
100
AcDbEntity
  8
STRUCTURES TEXT
  6
Continuous
370
    30
100
AcDbMText
 10
-70148.714757
 20
3066.407493
 30
0.0
 40
1.32
 41
0.0
 71
     8
 72
     1
  1
\Fstraight_squash.shx;{\T1.0;\W0.7x;\H0.7x;\S3#8;}"
  7
Style 1
 73
     2
 44
0.722892
  0
MTEXT
  5
3728
330
431C
100
AcDbEntity
  8
STRUCTURES TEXT
  6
Continuous
370
    30
100
AcDbMText
 10
-70137.778733
 20
3055.039905
 30
0.0
 40
1.32
 41
0.0
 71
     8
 72
     1
  1
\Fstraight_squash.shx;4"
  7
Style 1
 11
2.679489658502661E-8
 21
0.9999999999999997
 31
0.0
 73
     2
 44
0.722892
  0
MTEXT
  5
3729
330
431C
100
AcDbEntity
  8
STRUCTURES TEXT
  6
Continuous
370
    30
100
AcDbMText
 10
-70137.778733
 20
3044.608549
 30
0.0
 40
1.32
 41
0.0
 71
     8
 72
     1
  1
\Fstraight_squash.shx;4"
  7
Style 1
 11
2.679489658502661E-8
 21
0.9999999999999997
 31
0.0
 73
     2
 44
0.722892
  0
MTEXT
  5
372A
330
431C
100
AcDbEntity
  8
STRUCTURES TEXT
  6
Continuous
370
    30
100
AcDbMText
 10
-70130.958231
 20
3044.608549
 30
0.0
 40
1.32
 41
0.0
 71
     8
 72
     1
  1
\Fstraight_squash.shx;6"
  7
Style 1
 11
2.679489658502661E-8
 21
0.9999999999999997
 31
0.0
 73
     2
 44
0.722892
  0
MTEXT
  5
372B
330
431C
100
AcDbEntity
  8
STRUCTURES TEXT
  6
Continuous
370
    30
100
AcDbMText
 10
-70130.958231
 20
3054.973037
 30
0.0
 40
1.32
 41
0.0
 71
     8
 72
     1
  1
\Fstraight_squash.shx;6"
  7
Style 1
 11
2.679489658502661E-8
 21
0.9999999999999997
 31
0.0
 73
     2
 44
0.722892
  0
MTEXT
  5
372C
330
431C
100
AcDbEntity
  8
STRUCTURES TEXT
  6
Continuous
370
    30
100
AcDbMText
 10
-70136.575115
 20
3072.093342
 30
0.0
 40
1.32
 41
0.0
 71
     8
 72
     1
  1
\Fstraight_squash.shx;17", 21", 27" BEAMS
  7
Style 1
 11
2.679489658502661E-8
 21
0.9999999999999997
 31
0.0
 73
     2
 44
0.722892
  0
MTEXT
  5
3769
330
431C
100
AcDbEntity
  8
STRUCTURES TEXT
  6
Continuous
370
    30
100
AcDbMText
 10
-70129.620877
 20
3072.817886
 30
0.0
 40
1.32
 41
0.0
 71
     8
 72
     1
  1
\Fstraight_squash.shx;33", 39", 42" BEAMS
  7
Style 1
 11
2.679489658502661E-8
 21
0.9999999999999997
 31
0.0
 73
     2
 44
0.722892
  0
MTEXT
  5
37A4
102
{ACAD_XDICTIONARY
360
437A
102
}
330
431C
100
AcDbEntity
  8
STRUCTURES TEXT
  6
Continuous
370
    30
100
AcDbMText
 10
-69993.897422
 20
3215.585668
 30
0.0
 40
1.32
 41
0.0
 71
     7
 72
     1
  1
\Fstraight_squash.shx;2" ~ OR 3" ~ FOAM BLOCKOUT\PAFTER ERECTION, CUT STRANDS\PFLUSH WITH BOTTOM OF VOID\PAND FILL WITH GROUT MEETING \PTHE REQUIREMENTS OF SUB-SECT.\P715.5
  7
Style 1
 73
     2
 44
0.9
  0
MTEXT
  5
37AB
330
431C
100
AcDbEntity
  8
STRUCTURES TEXT
  6
Continuous
370
    30
100
AcDbMText
 10
-69978.200237
 20
3207.70884
 30
0.0
 40
1.32
 41
0.0
 71
     7
 72
     1
  1
\Fstraight_squash.shx;TYP
  7
Style 1
 73
     2
 44
0.722892
  0
LINE
  5
37AD
330
431C
100
AcDbEntity
  8
Level 3
  6
Continuous
 62
     2
370
    30
100
AcDbLine
 10
-69971.600281
 20
3211.013591
 30
0.0
 11
-69980.600886
 21
3211.013591
 31
0.0
  0
SOLID
  5
37AE
330
431C
100
AcDbEntity
  8
Level 3
  6
Continuous
 62
     2
370
    30
100
AcDbTrace
 10
69972.912781
 20
3211.341716
 30
0.0
 11
69971.600281
 21
3211.013591
 31
0.0
 12
69972.912781
 22
3210.685466
 32
0.0
 13
69972.912781
 23
3210.685466
 33
0.0
210
0.0
220
0.0
230
-1.0
  0
SOLID
  5
37AF
330
431C
100
AcDbEntity
  8
Level 3
  6
Continuous
 62
     2
370
    30
100
AcDbTrace
 10
-69979.288386
 20
3210.685466
 30
0.0
 11
-69980.600886
 21
3211.013591
 31
0.0
 12
-69979.288386
 22
3211.341716
 32
0.0
 13
-69979.288386
 23
3211.341716
 33
0.0
  0
LINE
  5
37B0
330
431C
100
AcDbEntity
  8
Level 3
  6
Continuous
 62
     2
370
    30
100
AcDbLine
 10
-69971.600281
 20
3187.512141
 30
0.0
 11
-69971.600281
 21
3211.669841
 31
0.0
  0
LINE
  5
37B1
330
431C
100
AcDbEntity
  8
Level 3
  6
Continuous
 62
     2
370
    30
100
AcDbLine
 10
-69980.600886
 20
3205.597954
 30
0.0
 11
-69980.600886
 21
3211.669841
 31
0.0
  0
MTEXT
  5
37B2
330
431C
100
AcDbEntity
  8
STRUCTURES TEXT
  6
Continuous
370
    30
100
AcDbMText
 10
-69976.996619
 20
3211.319694
 30
0.0
 40
1.32
 41
0.0
 71
     7
 72
     1
  1
\Fstraight_squash.shx;6"
  7
Style 1
 73
     2
 44
0.722892
  0
LINE
  5
37B5
330
431C
100
AcDbEntity
  8
STRUCTURES TEXT
  6
Continuous
 62
     2
370
    30
100
AcDbLine
 10
-70042.744253
 20
3223.083205
 30
0.0
 11
-70042.744253
 21
3210.746121
 31
0.0
  0
LEADER
  5
37B7
330
431C
100
AcDbEntity
  8
Level 3
  6
Continuous
 62
     2
370
    30
100
AcDbLeader
  3
Tim
 74
     0
 76
     3
 10
-70016.600886
 20
3205.008572
 30
0.0
 10
-70037.478425
 20
3205.008572
 30
0.0
 10
-70042.744253
 20
3210.746121
 30
0.0
1001
ACAD
1000
DSTYLE
1002
{
1070
   371
1070
    -2
1070
   147
1040
0.0
1070
   176
1070
     0
1002
}
  0
LINE
  5
37B8
330
431C
100
AcDbEntity
  8
STRUCTURES TEXT
  6
Continuous
 62
     2
370
    30
100
AcDbLine
 10
-69995.351794
 20
3226.694059
 30
0.0
 11
-69995.351794
 21
3214.356975
 31
0.0
  0
LEADER
  5
37BA
330
431C
100
AcDbEntity
  8
Level 3
  6
Continuous
 62
     2
370
    30
100
AcDbLeader
  3
Tim
 74
     0
 76
     2
 10
-69982.081776
 20
3199.014777
 30
0.0
 10
-69995.351794
 20
3214.356975
 30
0.0
1001
ACAD
1000
DSTYLE
1002
{
1070
   371
1070
    -2
1070
   147
1040
0.0
1070
   176
1070
     0
1002
}
  0
LINE
  5
37C0
330
431C
100
AcDbEntity
  8
Level 3
  6
Continuous
 62
     2
370
    30
100
AcDbLine
 10
-69967.281305
 20
3112.317449
 30
0.0
 11
-69967.281305
 21
3110.033551
 31
0.0
  0
LINE
  5
37C1
330
431C
100
AcDbEntity
  8
Level 3
  6
Continuous
 62
     2
370
    30
100
AcDbLine
 10
-69967.281305
 20
3108.721051
 30
0.0
 11
-69967.281305
 21
3110.033551
 31
0.0
  0
SOLID
  5
37C2
330
431C
100
AcDbEntity
  8
Level 3
  6
Continuous
 62
     2
370
    30
100
AcDbTrace
 10
-69966.95318
 20
3113.629949
 30
0.0
 11
-69967.281305
 21
3112.317449
 31
0.0
 12
-69967.60943
 22
3113.629949
 32
0.0
 13
-69967.60943
 23
3113.629949
 33
0.0
  0
SOLID
  5
37C3
330
431C
100
AcDbEntity
  8
Level 3
  6
Continuous
 62
     2
370
    30
100
AcDbTrace
 10
69967.60943
 20
3108.721051
 30
0.0
 11
69967.281305
 21
3110.033551
 31
0.0
 12
69966.95318
 22
3108.721051
 32
0.0
 13
69966.95318
 23
3108.721051
 33
0.0
210
0.0
220
0.0
230
-1.0
  0
LINE
  5
37C4
330
431C
100
AcDbEntity
  8
Level 3
  6
Continuous
 62
     2
370
    30
100
AcDbLine
 10
-69976.455667
 20
3112.317449
 30
0.0
 11
-69966.625055
 21
3112.317449
 31
0.0
  0
LINE
  5
37C5
330
431C
100
AcDbEntity
  8
Level 3
  6
Continuous
 62
     2
370
    30
100
AcDbLine
 10
-69972.843748
 20
3110.033551
 30
0.0
 11
-69966.625055
 21
3110.033551
 31
0.0
  0
LINE
  5
37C8
330
431C
100
AcDbEntity
  8
Level 3
  6
Continuous
 62
     2
370
    30
100
AcDbLine
 10
-70014.497863
 20
3103.213049
 30
0.0
 11
-70016.781537
 21
3103.213049
 31
0.0
  0
LINE
  5
37C9
330
431C
100
AcDbEntity
  8
Level 3
  6
Continuous
 62
     2
370
    30
100
AcDbLine
 10
-70018.094037
 20
3103.213049
 30
0.0
 11
-70016.781537
 21
3103.213049
 31
0.0
  0
SOLID
  5
37CA
330
431C
100
AcDbEntity
  8
Level 3
  6
Continuous
 62
     2
370
    30
100
AcDbTrace
 10
-70013.185363
 20
3102.884924
 30
0.0
 11
-70014.497863
 21
3103.213049
 31
0.0
 12
-70013.185363
 22
3103.541174
 32
0.0
 13
-70013.185363
 23
3103.541174
 33
0.0
  0
SOLID
  5
37CB
330
431C
100
AcDbEntity
  8
Level 3
  6
Continuous
 62
     2
370
    30
100
AcDbTrace
 10
70018.094037
 20
3103.541174
 30
0.0
 11
70016.781537
 21
3103.213049
 31
0.0
 12
70018.094037
 22
3102.884924
 32
0.0
 13
70018.094037
 23
3102.884924
 33
0.0
210
0.0
220
0.0
230
-1.0
  0
LINE
  5
37CC
330
431C
100
AcDbEntity
  8
Level 3
  6
Continuous
 62
     2
370
    30
100
AcDbLine
 10
-70014.497863
 20
3111.661199
 30
0.0
 11
-70014.497863
 21
3102.556799
 31
0.0
  0
LINE
  5
37CD
330
431C
100
AcDbEntity
  8
Level 3
  6
Continuous
 62
     2
370
    30
100
AcDbLine
 10
-70016.781537
 20
3109.411199
 30
0.0
 11
-70016.781537
 21
3102.556799
 31
0.0
  0
LINE
  5
37CF
330
431C
100
AcDbEntity
  8
Level 3
  6
Continuous
 62
     2
370
    30
100
AcDbLine
 10
-70033.443521
 20
3118.168671
 30
0.0
 11
-70025.171345
 21
3144.953134
 31
0.0
  0
SOLID
  5
37D0
330
431C
100
AcDbEntity
  8
Level 3
  6
Continuous
 62
     2
370
    30
100
AcDbTrace
 10
70032.80814
 20
3119.217845
 30
0.0
 11
70033.508958
 21
3118.060617
 31
0.0
 12
70033.435167
 22
3119.411498
 32
0.0
 13
70033.435167
 23
3119.411498
 33
0.0
210
0.0
220
0.0
230
-1.0
  0
SOLID
  5
37D1
330
431C
100
AcDbEntity
  8
Level 3
  6
Continuous
 62
     2
370
    30
100
AcDbTrace
 10
-70025.872163
 20
3143.795907
 30
0.0
 11
-70025.171345
 21
3144.953134
 31
0.0
 12
-70025.245136
 22
3143.602254
 32
0.0
 13
-70025.245136
 23
3143.602254
 33
0.0
  0
LINE
  5
37D2
330
431C
100
AcDbEntity
  8
Level 3
  6
Continuous
 62
     2
370
    30
100
AcDbLine
 10
-70015.12489
 20
3112.511102
 30
0.0
 11
-70034.421858
 21
3118.470822
 31
0.0
  0
LINE
  5
37D3
330
431C
100
AcDbEntity
  8
Level 3
  6
Continuous
 62
     2
370
    30
100
AcDbLine
 10
-70006.852713
 20
3139.295565
 30
0.0
 11
-70026.096276
 21
3145.238792
 31
0.0
  0
MTEXT
  5
37D4
330
431C
100
AcDbEntity
  8
STRUCTURES TEXT
  6
Continuous
370
    30
100
AcDbMText
 10
-70030.122783
 20
3131.354747
 30
0.0
 40
1.32
 41
0.0
 71
     8
 72
     1
  1
\Fstraight_squash.shx;EMBEDMENT LENGTH
  7
Style 1
 11
0.2950410886489224
 21
0.9554845660756948
 31
0.0
 73
     2
 44
0.722892
  0
MTEXT
  5
37D8
330
431C
100
AcDbEntity
  8
STRUCTURES TEXT
  6
Continuous
370
    30
100
AcDbMText
 10
-70005.128404
 20
3102.112144
 30
0.0
 40
1.32
 41
0.0
 71
     8
 72
     1
  1
\Fstraight_squash.shx;1{\T1.0;\W0.7x;\H0.7x;\S1#2;}" CLR.
  7
Style 1
 73
     2
 44
0.722892
  0
MTEXT
  5
37D9
330
431C
100
AcDbEntity
  8
STRUCTURES TEXT
  6
Continuous
370
    30
100
AcDbMText
 10
-69966.308563
 20
3121.272891
 30
0.0
 40
1.32
 41
0.0
 71
     8
 72
     1
  1
\Fstraight_squash.shx;1{\T1.0;\W0.7x;\H0.7x;\S1#4;}" CLR.
  7
Style 1
 11
2.679489658502661E-8
 21
0.9999999999999997
 31
0.0
 73
     2
 44
0.722892
  0
LINE
  5
37C7
330
431C
100
AcDbEntity
  8
Level 3
  6
Continuous
 62
     2
370
    30
100
AcDbLine
 10
-70010.444384
 20
3103.213049
 30
0.0
 11
-70014.497863
 21
3103.213049
 31
0.0
  0
LINE
  5
37BF
330
431C
100
AcDbEntity
  8
Level 3
  6
Continuous
 62
     2
370
    30
100
AcDbLine
 10
-69967.281305
 20
3115.956912
 30
0.0
 11
-69967.281305
 21
3112.317449
 31
0.0
  0
MTEXT
  5
37DA
330
431C
100
AcDbEntity
  8
STRUCTURES TEXT
  6
Continuous
370
    30
100
AcDbMText
 10
-69991.086194
 20
3148.551739
 30
0.0
 40
1.32
 41
0.0
 71
     8
 72
     1
  1
\Fstraight_squash.shx;\{ BEARING
  7
Style 1
 73
     2
 44
0.722892
  0
LINE
  5
37DD
330
431C
100
AcDbEntity
  8
Level 3
  6
Continuous
 62
     2
370
    30
100
AcDbLine
 10
-70016.781537
 20
3149.758518
 30
0.0
 11
-70003.281537
 21
3149.758518
 31
0.0
  0
SOLID
  5
37DE
330
431C
100
AcDbEntity
  8
Level 3
  6
Continuous
 62
     2
370
    30
100
AcDbTrace
 10
-70015.469037
 20
3149.430393
 30
0.0
 11
-70016.781537
 21
3149.758518
 31
0.0
 12
-70015.469037
 22
3150.086643
 32
0.0
 13
-70015.469037
 23
3150.086643
 33
0.0
  0
SOLID
  5
37DF
330
431C
100
AcDbEntity
  8
Level 3
  6
Continuous
 62
     2
370
    30
100
AcDbTrace
 10
70004.594037
 20
3150.086643
 30
0.0
 11
70003.281537
 21
3149.758518
 31
0.0
 12
70004.594037
 22
3149.430393
 32
0.0
 13
70004.594037
 23
3149.430393
 33
0.0
210
0.0
220
0.0
230
-1.0
  0
LINE
  5
37E0
330
431C
100
AcDbEntity
  8
Level 3
  6
Continuous
 62
     2
370
    30
100
AcDbLine
 10
-70016.781537
 20
3142.223699
 30
0.0
 11
-70016.781537
 21
3150.414768
 31
0.0
  0
LINE
  5
37E1
330
431C
100
AcDbEntity
  8
Level 3
  6
Continuous
 62
     2
370
    30
100
AcDbLine
 10
-70003.281537
 20
3148.153833
 30
0.0
 11
-70003.281537
 21
3150.414768
 31
0.0
  0
MTEXT
  5
37E2
330
431C
100
AcDbEntity
  8
STRUCTURES TEXT
  6
Continuous
370
    30
100
AcDbMText
 10
-70010.043178
 20
3150.557769
 30
0.0
 40
1.32
 41
0.0
 71
     8
 72
     1
  1
\Fstraight_squash.shx;9"
  7
Style 1
 73
     2
 44
0.722892
  0
LEADER
  5
37E3
330
431C
100
AcDbEntity
  8
Level 3
  6
Continuous
 62
     2
370
    30
100
AcDbLeader
  3
Tim
 74
     0
 76
     3
 10
-70003.281537
 20
3147.497583
 30
0.0
 10
-69999.110314
 20
3149.658216
 30
0.0
 10
-69997.104284
 20
3149.658216
 30
0.0
1001
ACAD
1000
DSTYLE
1002
{
1070
   371
1070
    -2
1070
   147
1040
0.0
1070
   176
1070
     0
1002
}
  0
LINE
  5
37ED
330
431C
100
AcDbEntity
  8
Level 3
  6
Continuous
 62
     2
370
    30
100
AcDbLine
 10
-69975.858358
 20
3090.420742
 30
0.0
 11
-69974.545858
 21
3090.420742
 31
0.0
  0
LINE
  5
37EE
330
431C
100
AcDbEntity
  8
Level 3
  6
Continuous
 62
     2
370
    30
100
AcDbLine
 10
-69974.545858
 20
3090.420742
 30
0.0
 11
-69970.795858
 21
3090.420742
 31
0.0
  0
LINE
  5
37EF
330
431C
100
AcDbEntity
  8
Level 3
  6
Continuous
 62
     2
370
    30
100
AcDbLine
 10
-69969.483358
 20
3090.420742
 30
0.0
 11
-69970.795858
 21
3090.420742
 31
0.0
  0
SOLID
  5
37F0
330
431C
100
AcDbEntity
  8
Level 3
  6
Continuous
 62
     2
370
    30
100
AcDbTrace
 10
69975.858358
 20
3090.748867
 30
0.0
 11
69974.545858
 21
3090.420742
 31
0.0
 12
69975.858358
 22
3090.092617
 32
0.0
 13
69975.858358
 23
3090.092617
 33
0.0
210
0.0
220
0.0
230
-1.0
  0
SOLID
  5
37F1
330
431C
100
AcDbEntity
  8
Level 3
  6
Continuous
 62
     2
370
    30
100
AcDbTrace
 10
-69969.483358
 20
3090.092617
 30
0.0
 11
-69970.795858
 21
3090.420742
 31
0.0
 12
-69969.483358
 22
3090.748867
 32
0.0
 13
-69969.483358
 23
3090.748867
 33
0.0
  0
LINE
  5
37F2
330
431C
100
AcDbEntity
  8
Level 3
  6
Continuous
 62
     2
370
    30
100
AcDbLine
 10
-69974.545858
 20
3080.449288
 30
0.0
 11
-69974.545858
 21
3091.076992
 31
0.0
  0
LINE
  5
37F3
330
431C
100
AcDbEntity
  8
Level 3
  6
Continuous
 62
     2
370
    30
100
AcDbLine
 10
-69970.795858
 20
3080.449288
 30
0.0
 11
-69970.795858
 21
3091.076992
 31
0.0
  0
LINE
  5
37F5
330
431C
100
AcDbEntity
  8
Level 3
  6
Continuous
 62
     2
370
    30
100
AcDbLine
 10
-69977.670858
 20
3067.485133
 30
0.0
 11
-69967.670858
 21
3067.485133
 31
0.0
  0
SOLID
  5
37F6
330
431C
100
AcDbEntity
  8
Level 3
  6
Continuous
 62
     2
370
    30
100
AcDbTrace
 10
-69976.358358
 20
3067.157008
 30
0.0
 11
-69977.670858
 21
3067.485133
 31
0.0
 12
-69976.358358
 22
3067.813258
 32
0.0
 13
-69976.358358
 23
3067.813258
 33
0.0
  0
SOLID
  5
37F7
330
431C
100
AcDbEntity
  8
Level 3
  6
Continuous
 62
     2
370
    30
100
AcDbTrace
 10
69968.983358
 20
3067.813258
 30
0.0
 11
69967.670858
 21
3067.485133
 31
0.0
 12
69968.983358
 22
3067.157008
 32
0.0
 13
69968.983358
 23
3067.157008
 33
0.0
210
0.0
220
0.0
230
-1.0
  0
LINE
  5
37F8
330
431C
100
AcDbEntity
  8
Level 3
  6
Continuous
 62
     2
370
    30
100
AcDbLine
 10
-69977.670858
 20
3079.136788
 30
0.0
 11
-69977.670858
 21
3066.828883
 31
0.0
  0
LINE
  5
37F9
330
431C
100
AcDbEntity
  8
Level 3
  6
Continuous
 62
     2
370
    30
100
AcDbLine
 10
-69967.670858
 20
3079.136788
 30
0.0
 11
-69967.670858
 21
3066.828883
 31
0.0
  0
LINE
  5
37FB
330
431C
100
AcDbEntity
  8
Level 3
  6
Continuous
 62
     2
370
    30
100
AcDbLine
 10
-70019.461528
 20
3090.48761
 30
0.0
 11
-70018.149028
 21
3090.48761
 31
0.0
  0
LINE
  5
37FC
330
431C
100
AcDbEntity
  8
Level 3
  6
Continuous
 62
     2
370
    30
100
AcDbLine
 10
-70018.149028
 20
3090.48761
 30
0.0
 11
-70011.899028
 21
3090.48761
 31
0.0
  0
LINE
  5
37FD
330
431C
100
AcDbEntity
  8
Level 3
  6
Continuous
 62
     2
370
    30
100
AcDbLine
 10
-70010.586528
 20
3090.48761
 30
0.0
 11
-70011.899028
 21
3090.48761
 31
0.0
  0
SOLID
  5
37FE
330
431C
100
AcDbEntity
  8
Level 3
  6
Continuous
 62
     2
370
    30
100
AcDbTrace
 10
70019.461528
 20
3090.815735
 30
0.0
 11
70018.149028
 21
3090.48761
 31
0.0
 12
70019.461528
 22
3090.159485
 32
0.0
 13
70019.461528
 23
3090.159485
 33
0.0
210
0.0
220
0.0
230
-1.0
  0
SOLID
  5
37FF
330
431C
100
AcDbEntity
  8
Level 3
  6
Continuous
 62
     2
370
    30
100
AcDbTrace
 10
-70010.586528
 20
3090.159485
 30
0.0
 11
-70011.899028
 21
3090.48761
 31
0.0
 12
-70010.586528
 22
3090.815735
 32
0.0
 13
-70010.586528
 23
3090.815735
 33
0.0
  0
LINE
  5
3800
330
431C
100
AcDbEntity
  8
Level 3
  6
Continuous
 62
     2
370
    30
100
AcDbLine
 10
-70018.149028
 20
3080.449288
 30
0.0
 11
-70018.149028
 21
3091.14386
 31
0.0
  0
LINE
  5
3801
330
431C
100
AcDbEntity
  8
Level 3
  6
Continuous
 62
     2
370
    30
100
AcDbLine
 10
-70011.899028
 20
3080.449288
 30
0.0
 11
-70011.899028
 21
3091.14386
 31
0.0
  0
LINE
  5
3803
330
431C
100
AcDbEntity
  8
Level 3
  6
Continuous
 62
     2
370
    30
100
AcDbLine
 10
-70022.524028
 20
3067.752603
 30
0.0
 11
-70007.524028
 21
3067.752603
 31
0.0
  0
SOLID
  5
3804
330
431C
100
AcDbEntity
  8
Level 3
  6
Continuous
 62
     2
370
    30
100
AcDbTrace
 10
-70021.211528
 20
3067.424478
 30
0.0
 11
-70022.524028
 21
3067.752603
 31
0.0
 12
-70021.211528
 22
3068.080728
 32
0.0
 13
-70021.211528
 23
3068.080728
 33
0.0
  0
SOLID
  5
3805
330
431C
100
AcDbEntity
  8
Level 3
  6
Continuous
 62
     2
370
    30
100
AcDbTrace
 10
70008.836528
 20
3068.080728
 30
0.0
 11
70007.524028
 21
3067.752603
 31
0.0
 12
70008.836528
 22
3067.424478
 32
0.0
 13
70008.836528
 23
3067.424478
 33
0.0
210
0.0
220
0.0
230
-1.0
  0
LINE
  5
3806
330
431C
100
AcDbEntity
  8
Level 3
  6
Continuous
 62
     2
370
    30
100
AcDbLine
 10
-70022.524028
 20
3079.136788
 30
0.0
 11
-70022.524028
 21
3067.096353
 31
0.0
  0
LINE
  5
3807
330
431C
100
AcDbEntity
  8
Level 3
  6
Continuous
 62
     2
370
    30
100
AcDbLine
 10
-70007.524028
 20
3079.136788
 30
0.0
 11
-70007.524028
 21
3067.096353
 31
0.0
  0
LINE
  5
3809
330
431C
100
AcDbEntity
  8
Level 3
  6
Continuous
 62
     2
370
    30
100
AcDbLine
 10
-70030.384371
 20
3058.335904
 30
0.0
 11
-70030.384371
 21
3048.335904
 31
0.0
  0
SOLID
  5
380A
330
431C
100
AcDbEntity
  8
Level 3
  6
Continuous
 62
     2
370
    30
100
AcDbTrace
 10
70030.712496
 20
3057.023404
 30
0.0
 11
70030.384371
 21
3058.335904
 31
0.0
 12
70030.056246
 22
3057.023404
 32
0.0
 13
70030.056246
 23
3057.023404
 33
0.0
210
0.0
220
0.0
230
-1.0
  0
SOLID
  5
380B
330
431C
100
AcDbEntity
  8
Level 3
  6
Continuous
 62
     2
370
    30
100
AcDbTrace
 10
-70030.056246
 20
3049.648404
 30
0.0
 11
-70030.384371
 21
3048.335904
 31
0.0
 12
-70030.712496
 22
3049.648404
 32
0.0
 13
-70030.712496
 23
3049.648404
 33
0.0
  0
LINE
  5
380C
330
431C
100
AcDbEntity
  8
Level 3
  6
Continuous
 62
     2
370
    30
100
AcDbLine
 10
-70023.180278
 20
3058.335904
 30
0.0
 11
-70031.040621
 21
3058.335904
 31
0.0
  0
LINE
  5
380D
330
431C
100
AcDbEntity
  8
Level 3
  6
Continuous
 62
     2
370
    30
100
AcDbLine
 10
-70023.180278
 20
3048.335904
 30
0.0
 11
-70031.040621
 21
3048.335904
 31
0.0
  0
LINE
  5
380F
330
431C
100
AcDbEntity
  8
Level 3
  6
Continuous
 62
     2
370
    30
100
AcDbLine
 10
-69985.348997
 20
3058.335904
 30
0.0
 11
-69985.348997
 21
3048.335904
 31
0.0
  0
SOLID
  5
3810
330
431C
100
AcDbEntity
  8
Level 3
  6
Continuous
 62
     2
370
    30
100
AcDbTrace
 10
69985.677122
 20
3057.023404
 30
0.0
 11
69985.348997
 21
3058.335904
 31
0.0
 12
69985.020872
 22
3057.023404
 32
0.0
 13
69985.020872
 23
3057.023404
 33
0.0
210
0.0
220
0.0
230
-1.0
  0
SOLID
  5
3811
330
431C
100
AcDbEntity
  8
Level 3
  6
Continuous
 62
     2
370
    30
100
AcDbTrace
 10
-69985.020872
 20
3049.648404
 30
0.0
 11
-69985.348997
 21
3048.335904
 31
0.0
 12
-69985.677122
 22
3049.648404
 32
0.0
 13
-69985.677122
 23
3049.648404
 33
0.0
  0
LINE
  5
3812
330
431C
100
AcDbEntity
  8
Level 3
  6
Continuous
 62
     2
370
    30
100
AcDbLine
 10
-69978.327108
 20
3058.335904
 30
0.0
 11
-69986.005247
 21
3058.335904
 31
0.0
  0
LINE
  5
3813
330
431C
100
AcDbEntity
  8
Level 3
  6
Continuous
 62
     2
370
    30
100
AcDbLine
 10
-69978.327108
 20
3048.335904
 30
0.0
 11
-69986.005247
 21
3048.335904
 31
0.0
  0
LINE
  5
3541
330
431C
100
AcDbEntity
  8
STRUCTURES TEXT
  6
DGN Style 7
 62
     2
370
    40
100
AcDbLine
 10
-70015.024028
 20
3044.229345
 30
0.0
 11
-70015.024028
 21
3065.228349
 31
0.0
  0
LINE
  5
3814
330
431C
100
AcDbEntity
  8
STRUCTURES TEXT
  6
DGN Style 7
 62
     2
370
    40
100
AcDbLine
 10
-70015.024028
 20
3070.193273
 30
0.0
 11
-70015.024028
 21
3085.088046
 31
0.0
  0
LINE
  5
3536
330
431C
100
AcDbEntity
  8
STRUCTURES TEXT
  6
DGN Style 7
 62
     2
370
    40
100
AcDbLine
 10
-69972.670858
 20
3044.254111
 30
0.0
 11
-69972.670858
 21
3064.62654
 31
0.0
  0
LINE
  5
3815
330
431C
100
AcDbEntity
  8
STRUCTURES TEXT
  6
DGN Style 7
 62
     2
370
    40
100
AcDbLine
 10
-69972.670858
 20
3070.795082
 30
0.0
 11
-69972.670858
 21
3083.282619
 31
0.0
  0
MTEXT
  5
3816
330
431C
100
AcDbEntity
  8
STRUCTURES TEXT
  6
Continuous
370
    30
100
AcDbMText
 10
-70014.737337
 20
3068.067064
 30
0.0
 40
1.32
 41
0.0
 71
     8
 72
     1
  1
\Fstraight_squash.shx;3" O.D.
  7
Style 1
 73
     2
 44
0.722892
  0
MTEXT
  5
3817
330
431C
100
AcDbEntity
  8
STRUCTURES TEXT
  6
Continuous
370
    30
100
AcDbMText
 10
-70014.737337
 20
3091.203277
 30
0.0
 40
1.32
 41
0.0
 71
     8
 72
     1
  1
\Fstraight_squash.shx;1{\T1.0;\W0.7x;\H0.7x;\S1#4;}" I.D.
  7
Style 1
 73
     2
 44
0.722892
  0
MTEXT
  5
3818
330
431C
100
AcDbEntity
  8
STRUCTURES TEXT
  6
Continuous
370
    30
100
AcDbMText
 10
-69972.343236
 20
3068.200799
 30
0.0
 40
1.32
 41
0.0
 71
     8
 72
     1
  1
\Fstraight_squash.shx;2" O.D.
  7
Style 1
 73
     2
 44
0.722892
  0
MTEXT
  5
3819
330
431C
100
AcDbEntity
  8
STRUCTURES TEXT
  6
Continuous
370
    30
100
AcDbMText
 10
-69972.343236
 20
3091.203277
 30
0.0
 40
1.32
 41
0.0
 71
     8
 72
     1
  1
\Fstraight_squash.shx;{\T1.0;\W0.7x;\H0.7x;\S3#4;}" I.D.
  7
Style 1
 73
     2
 44
0.722892
  0
MTEXT
  5
381A
330
431C
100
AcDbEntity
  8
STRUCTURES TEXT
  6
Continuous
370
    30
100
AcDbMText
 10
-70031.016454
 20
3053.325904
 30
0.0
 40
1.32
 41
0.0
 71
     8
 72
     1
  1
\Fstraight_squash.shx;2"
  7
Style 1
 11
2.679489658502661E-8
 21
0.9999999999999997
 31
0.0
 73
     2
 44
0.722892
  0
MTEXT
  5
381B
330
431C
100
AcDbEntity
  8
STRUCTURES TEXT
  6
Continuous
370
    30
100
AcDbMText
 10
-69985.81391
 20
3053.325904
 30
0.0
 40
1.32
 41
0.0
 71
     8
 72
     1
  1
\Fstraight_squash.shx;2"
  7
Style 1
 11
2.679489658502661E-8
 21
0.9999999999999997
 31
0.0
 73
     2
 44
0.722892
  0
MTEXT
  5
381C
330
431C
100
AcDbEntity
  8
STRUCTURES TEXT
  6
Continuous
370
    30
100
AcDbMText
 10
-69993.272816
 20
3064.255607
 30
0.0
 40
1.32
 41
0.0
 71
     8
 72
     1
  1
\Fstraight_squash.shx;\{ BEARING
  7
Style 1
 73
     2
 44
0.722892
  0
LEADER
  5
381D
330
431C
100
AcDbEntity
  8
Level 3
  6
Continuous
 62
     2
370
    30
100
AcDbLeader
  3
Tim
 74
     0
 76
     2
 10
-70014.804205
 20
3061.082553
 30
0.0
 10
-69999.090303
 20
3065.161481
 30
0.0
1001
ACAD
1000
DSTYLE
1002
{
1070
   371
1070
    -2
1070
   147
1040
0.0
1070
   176
1070
     0
1002
}
  0
LEADER
  5
381E
330
431C
100
AcDbEntity
  8
Level 3
  6
Continuous
 62
     2
370
    30
100
AcDbLeader
  3
Tim
 74
     0
 76
     2
 10
-69972.81131
 20
3061.684362
 30
0.0
 10
-69986.987255
 20
3065.295216
 30
0.0
1001
ACAD
1000
DSTYLE
1002
{
1070
   371
1070
    -2
1070
   147
1040
0.0
1070
   176
1070
     0
1002
}
  0
MTEXT
  5
3820
330
431C
100
AcDbEntity
  8
STRUCTURES TEXT
  6
Continuous
370
    30
100
AcDbMText
 10
-69972.799656
 20
3041.554522
 30
0.0
 40
1.32
 41
0.0
 71
     8
 72
     1
  1
\Fstraight_squash.shx;17" & 21" BEAMS
  7
Style 1
 73
     2
 44
0.722892
  0
MTEXT
  5
3821
330
431C
100
AcDbEntity
  8
STRUCTURES TEXT
  6
Continuous
370
    30
100
AcDbMText
 10
-70014.550156
 20
3041.554522
 30
0.0
 40
1.32
 41
0.0
 71
     8
 72
     1
  1
\Fstraight_squash.shx;27, 33, 39, & 42" BEAMS
  7
Style 1
 73
     2
 44
0.722892
  0
LWPOLYLINE
  5
3822
330
431C
100
AcDbEntity
  8
STRUCTURES TEXT
  6
Continuous
 62
     5
370
    80
100
AcDbPolyline
 90
        4
 70
   129
 43
0.0
 10
-70046.711931
 20
3228.725165
 10
-69955.392864
 20
3228.725165
 10
-69955.392864
 20
3035.193915
 10
-70046.711931
 20
3035.193915
  0
TEXT
  5
38EF
330
431C
100
AcDbEntity
  8
STRUCTURES TEXT
  6
Continuous
370
   106
100
AcDbText
 10
-70005.118973
 20
3161.193722
 30
0.0
 40
1.98
  1
END VIEW
  7
Style-straight_squash
 72
     1
 11
-69998.549467
 21
3161.193722
 31
0.0
100
AcDbText
  0
TEXT
  5
38F0
330
431C
100
AcDbEntity
  8
STRUCTURES TEXT
  6
Continuous
370
   106
100
AcDbText
 10
-70000.972881
 20
3096.434557
 30
0.0
 40
1.98
  1
SIDE VIEW
  7
Style-straight_squash
 72
     1
 11
-69994.129046
 21
3096.434557
 31
0.0
100
AcDbText
  0
TEXT
  5
38F1
330
431C
100
AcDbEntity
  8
STRUCTURES TEXT
  6
Continuous
370
   106
100
AcDbText
 10
-70011.457147
 20
3037.994226
 30
0.0
 40
1.98
  1
BLOCKOUT DETAILS
  7
Style-straight_squash
 72
     1
 11
-69997.330069
 21
3037.994226
 31
0.0
100
AcDbText
  0
TEXT
  5
38F2
330
431C
100
AcDbEntity
  8
STRUCTURES TEXT
  6
Continuous
370
   106
100
AcDbText
 10
-70155.816389
 20
3004.304997
 30
0.0
 40
1.98
  1
SHEAR KEY DETAIL
  7
Style-straight_squash
 72
     1
 11
-70141.786596
 21
3004.304997
 31
0.0
100
AcDbText
  0
TEXT
  5
38F4
330
431C
100
AcDbEntity
  8
STRUCTURES TEXT
  6
Continuous
370
   106
100
AcDbText
 10
-70189.747457
 20
3161.829157
 30
0.0
 40
1.98
  1
END BEARING DETAIL WITHOUT BACKWALL
  7
Style-straight_squash
 72
     1
 11
-70159.397528
 21
3161.829157
 31
0.0
100
AcDbText
  0
TEXT
  5
38F6
330
431C
100
AcDbEntity
  8
STRUCTURES TEXT
  6
Continuous
370
   106
100
AcDbText
 10
-70321.441023
 20
3169.983624
 30
0.0
 40
1.98
  1
END BEARING DETAIL WITH BACKWALL
  7
Style-straight_squash
 72
     1
 11
-70293.99934
 21
3169.983624
 31
0.0
100
AcDbText
  0
TEXT
  5
3964
330
431C
100
AcDbEntity
  8
STRUCTURES TEXT
  6
Continuous
370
   106
100
AcDbText
 10
-70298.872475
 20
2990.91926
 30
0.0
 40
1.98
  1
END BLOCK DETAIL - SKEWED BEAMS
  7
Style-straight_squash
 72
     1
 11
-70271.632973
 21
2990.91926
 31
0.0
100
AcDbText
  0
LINE
  5
3966
330
431C
100
AcDbEntity
  8
Level 3
  6
Continuous
 62
     2
370
    30
100
AcDbLine
 10
-70259.807604
 20
3107.319813
 30
0.0
 11
-70195.807604
 21
3107.319813
 31
0.0
  0
SOLID
  5
3967
330
431C
100
AcDbEntity
  8
Level 3
  6
Continuous
 62
     2
370
    30
100
AcDbTrace
 10
-70258.495104
 20
3106.991688
 30
0.0
 11
-70259.807604
 21
3107.319813
 31
0.0
 12
-70258.495104
 22
3107.647938
 32
0.0
 13
-70258.495104
 23
3107.647938
 33
0.0
  0
SOLID
  5
3968
330
431C
100
AcDbEntity
  8
Level 3
  6
Continuous
 62
     2
370
    30
100
AcDbTrace
 10
70197.120104
 20
3107.647938
 30
0.0
 11
70195.807604
 21
3107.319813
 31
0.0
 12
70197.120104
 22
3106.991688
 32
0.0
 13
70197.120104
 23
3106.991688
 33
0.0
210
0.0
220
0.0
230
-1.0
  0
LINE
  5
3969
330
431C
100
AcDbEntity
  8
Level 3
  6
Continuous
 62
     2
370
    30
100
AcDbLine
 10
-70259.807604
 20
3116.798448
 30
0.0
 11
-70259.807604
 21
3106.663563
 31
0.0
  0
LINE
  5
396A
330
431C
100
AcDbEntity
  8
Level 3
  6
Continuous
 62
     2
370
    30
100
AcDbLine
 10
-70195.807604
 20
3113.798448
 30
0.0
 11
-70195.807604
 21
3106.663563
 31
0.0
  0
LINE
  5
396C
330
431C
100
AcDbEntity
  8
Level 3
  6
Continuous
 62
     2
370
    30
100
AcDbLine
 10
-70267.499356
 20
3114.454698
 30
0.0
 11
-70267.499356
 21
3160.00575
 31
0.0
  0
SOLID
  5
396D
330
431C
100
AcDbEntity
  8
Level 3
  6
Continuous
 62
     2
370
    30
100
AcDbTrace
 10
-70267.171231
 20
3115.767198
 30
0.0
 11
-70267.499356
 21
3114.454698
 31
0.0
 12
-70267.827481
 22
3115.767198
 32
0.0
 13
-70267.827481
 23
3115.767198
 33
0.0
  0
SOLID
  5
396E
330
431C
100
AcDbEntity
  8
Level 3
  6
Continuous
 62
     2
370
    30
100
AcDbTrace
 10
70267.827481
 20
3147.642198
 30
0.0
 11
70267.499356
 21
3148.954698
 31
0.0
 12
70267.171231
 22
3147.642198
 32
0.0
 13
70267.171231
 23
3147.642198
 33
0.0
210
0.0
220
0.0
230
-1.0
  0
LINE
  5
396F
330
431C
100
AcDbEntity
  8
Level 3
  6
Continuous
 62
     2
370
    30
100
AcDbLine
 10
-70257.463854
 20
3114.454698
 30
0.0
 11
-70268.155606
 21
3114.454698
 31
0.0
  0
LINE
  5
3970
330
431C
100
AcDbEntity
  8
Level 3
  6
Continuous
 62
     2
370
    30
100
AcDbLine
 10
-70257.463854
 20
3148.954698
 30
0.0
 11
-70268.155606
 21
3148.954698
 31
0.0
  0
TEXT
  5
3971
330
431C
100
AcDbEntity
  8
STRUCTURES TEXT
  6
Continuous
370
    30
100
AcDbText
 10
-70237.949487
 20
3131.672034
 30
0.0
 40
1.752
  1
NO. 4 SS BAR
  7
Style-straight_squash
 72
     1
 11
-70228.91531
 21
3131.672034
 31
0.0
100
AcDbText
  0
LINE
  5
3978
330
431C
100
AcDbEntity
  8
Level 3
  6
Continuous
 62
     2
370
    30
100
AcDbLine
 10
-70275.522525
 20
3160.00575
 30
0.0
 11
-70275.522525
 21
3114.454698
 31
0.0
  0
SOLID
  5
3979
330
431C
100
AcDbEntity
  8
Level 3
  6
Continuous
 62
     2
370
    30
100
AcDbTrace
 10
70275.85065
 20
3147.642198
 30
0.0
 11
70275.522525
 21
3148.954698
 31
0.0
 12
70275.1944
 22
3147.642198
 32
0.0
 13
70275.1944
 23
3147.642198
 33
0.0
210
0.0
220
0.0
230
-1.0
  0
SOLID
  5
397A
330
431C
100
AcDbEntity
  8
Level 3
  6
Continuous
 62
     2
370
    30
100
AcDbTrace
 10
-70275.1944
 20
3115.767198
 30
0.0
 11
-70275.522525
 21
3114.454698
 31
0.0
 12
-70275.85065
 22
3115.767198
 32
0.0
 13
-70275.85065
 23
3115.767198
 33
0.0
  0
LINE
  5
397B
330
431C
100
AcDbEntity
  8
Level 3
  6
Continuous
 62
     2
370
    30
100
AcDbLine
 10
-70268.811856
 20
3148.954698
 30
0.0
 11
-70276.178775
 21
3148.954698
 31
0.0
  0
LINE
  5
397C
330
431C
100
AcDbEntity
  8
Level 3
  6
Continuous
 62
     2
370
    30
100
AcDbLine
 10
-70268.811856
 20
3114.454698
 30
0.0
 11
-70276.178775
 21
3114.454698
 31
0.0
  0
LINE
  5
397E
330
431C
100
AcDbEntity
  8
Level 3
  6
Continuous
 62
     2
370
    30
100
AcDbLine
 10
-70283.62663
 20
3160.00575
 30
0.0
 11
-70283.62663
 21
3114.454698
 31
0.0
  0
SOLID
  5
397F
330
431C
100
AcDbEntity
  8
Level 3
  6
Continuous
 62
     2
370
    30
100
AcDbTrace
 10
70283.954755
 20
3147.642198
 30
0.0
 11
70283.62663
 21
3148.954698
 31
0.0
 12
70283.298505
 22
3147.642198
 32
0.0
 13
70283.298505
 23
3147.642198
 33
0.0
210
0.0
220
0.0
230
-1.0
  0
SOLID
  5
3980
330
431C
100
AcDbEntity
  8
Level 3
  6
Continuous
 62
     2
370
    30
100
AcDbTrace
 10
-70283.298505
 20
3115.767198
 30
0.0
 11
-70283.62663
 21
3114.454698
 31
0.0
 12
-70283.954755
 22
3115.767198
 32
0.0
 13
-70283.954755
 23
3115.767198
 33
0.0
  0
LINE
  5
3981
330
431C
100
AcDbEntity
  8
Level 3
  6
Continuous
 62
     2
370
    30
100
AcDbLine
 10
-70276.835025
 20
3148.954698
 30
0.0
 11
-70284.28288
 21
3148.954698
 31
0.0
  0
LINE
  5
3982
330
431C
100
AcDbEntity
  8
Level 3
  6
Continuous
 62
     2
370
    30
100
AcDbLine
 10
-70276.835025
 20
3114.454698
 30
0.0
 11
-70284.28288
 21
3114.454698
 31
0.0
  0
LINE
  5
3984
330
431C
100
AcDbEntity
  8
Level 3
  6
Continuous
 62
     2
370
    30
100
AcDbLine
 10
-70292.025429
 20
3160.00575
 30
0.0
 11
-70292.025429
 21
3114.454698
 31
0.0
  0
SOLID
  5
3985
330
431C
100
AcDbEntity
  8
Level 3
  6
Continuous
 62
     2
370
    30
100
AcDbTrace
 10
70292.353554
 20
3147.642198
 30
0.0
 11
70292.025429
 21
3148.954698
 31
0.0
 12
70291.697304
 22
3147.642198
 32
0.0
 13
70291.697304
 23
3147.642198
 33
0.0
210
0.0
220
0.0
230
-1.0
  0
SOLID
  5
3986
330
431C
100
AcDbEntity
  8
Level 3
  6
Continuous
 62
     2
370
    30
100
AcDbTrace
 10
-70291.697304
 20
3115.767198
 30
0.0
 11
-70292.025429
 21
3114.454698
 31
0.0
 12
-70292.353554
 22
3115.767198
 32
0.0
 13
-70292.353554
 23
3115.767198
 33
0.0
  0
LINE
  5
3987
330
431C
100
AcDbEntity
  8
Level 3
  6
Continuous
 62
     2
370
    30
100
AcDbLine
 10
-70284.93913
 20
3148.954698
 30
0.0
 11
-70292.681679
 21
3148.954698
 31
0.0
  0
LINE
  5
3988
330
431C
100
AcDbEntity
  8
Level 3
  6
Continuous
 62
     2
370
    30
100
AcDbLine
 10
-70284.93913
 20
3114.454698
 30
0.0
 11
-70292.681679
 21
3114.454698
 31
0.0
  0
LINE
  5
398A
330
431C
100
AcDbEntity
  8
Level 3
  6
Continuous
 62
     2
370
    30
100
AcDbLine
 10
-70300.276881
 20
3160.00575
 30
0.0
 11
-70300.276881
 21
3114.454698
 31
0.0
  0
SOLID
  5
398B
330
431C
100
AcDbEntity
  8
Level 3
  6
Continuous
 62
     2
370
    30
100
AcDbTrace
 10
70300.605006
 20
3147.642198
 30
0.0
 11
70300.276881
 21
3148.954698
 31
0.0
 12
70299.948756
 22
3147.642198
 32
0.0
 13
70299.948756
 23
3147.642198
 33
0.0
210
0.0
220
0.0
230
-1.0
  0
SOLID
  5
398C
330
431C
100
AcDbEntity
  8
Level 3
  6
Continuous
 62
     2
370
    30
100
AcDbTrace
 10
-70299.948756
 20
3115.767198
 30
0.0
 11
-70300.276881
 21
3114.454698
 31
0.0
 12
-70300.605006
 22
3115.767198
 32
0.0
 13
-70300.605006
 23
3115.767198
 33
0.0
  0
LINE
  5
398D
330
431C
100
AcDbEntity
  8
Level 3
  6
Continuous
 62
     2
370
    30
100
AcDbLine
 10
-70293.337929
 20
3148.954698
 30
0.0
 11
-70300.933131
 21
3148.954698
 31
0.0
  0
LINE
  5
398E
330
431C
100
AcDbEntity
  8
Level 3
  6
Continuous
 62
     2
370
    30
100
AcDbLine
 10
-70293.337929
 20
3114.454698
 30
0.0
 11
-70300.933131
 21
3114.454698
 31
0.0
  0
LINE
  5
3990
330
431C
100
AcDbEntity
  8
Level 3
  6
Continuous
 62
     2
370
    30
100
AcDbLine
 10
-70307.644249
 20
3160.00575
 30
0.0
 11
-70307.644249
 21
3114.454698
 31
0.0
  0
SOLID
  5
3991
330
431C
100
AcDbEntity
  8
Level 3
  6
Continuous
 62
     2
370
    30
100
AcDbTrace
 10
70307.972374
 20
3147.642198
 30
0.0
 11
70307.644249
 21
3148.954698
 31
0.0
 12
70307.316124
 22
3147.642198
 32
0.0
 13
70307.316124
 23
3147.642198
 33
0.0
210
0.0
220
0.0
230
-1.0
  0
SOLID
  5
3992
330
431C
100
AcDbEntity
  8
Level 3
  6
Continuous
 62
     2
370
    30
100
AcDbTrace
 10
-70307.316124
 20
3115.767198
 30
0.0
 11
-70307.644249
 21
3114.454698
 31
0.0
 12
-70307.972374
 22
3115.767198
 32
0.0
 13
-70307.972374
 23
3115.767198
 33
0.0
  0
LINE
  5
3993
330
431C
100
AcDbEntity
  8
Level 3
  6
Continuous
 62
     2
370
    30
100
AcDbLine
 10
-70301.589381
 20
3148.954698
 30
0.0
 11
-70308.300499
 21
3148.954698
 31
0.0
  0
LINE
  5
3994
330
431C
100
AcDbEntity
  8
Level 3
  6
Continuous
 62
     2
370
    30
100
AcDbLine
 10
-70301.589381
 20
3114.454698
 30
0.0
 11
-70308.300499
 21
3114.454698
 31
0.0
  0
TEXT
  5
3996
330
431C
100
AcDbEntity
  8
STRUCTURES TEXT
  6
Continuous
370
    30
100
AcDbText
 10
-70268.351621
 20
3149.792745
 30
0.0
 40
1.32
  1
17" BEAM
 50
89.999998
  7
Style-straight_squash
 72
     1
 11
-70268.35162
 21
3154.242831
 31
0.0
100
AcDbText
  0
TEXT
  5
3997
330
431C
100
AcDbEntity
  8
STRUCTURES TEXT
  6
Continuous
370
    30
100
AcDbText
 10
-70276.275634
 20
3149.81047
 30
0.0
 40
1.32
  1
21" BEAM
 50
89.999998
  7
Style-straight_squash
 72
     1
 11
-70276.275634
 21
3154.242831
 31
0.0
100
AcDbText
  0
TEXT
  5
3998
330
431C
100
AcDbEntity
  8
STRUCTURES TEXT
  6
Continuous
370
    30
100
AcDbText
 10
-70284.396111
 20
3149.466451
 30
0.0
 40
1.32
  1
27" BEAM
 50
89.999998
  7
Style-straight_squash
 72
     1
 11
-70284.396111
 21
3154.242831
 31
0.0
100
AcDbText
  0
TEXT
  5
3999
330
431C
100
AcDbEntity
  8
STRUCTURES TEXT
  6
Continuous
370
    30
100
AcDbText
 10
-70292.909514
 20
3149.443409
 30
0.0
 40
1.32
  1
33" BEAM
 50
89.999998
  7
Style-straight_squash
 72
     1
 11
-70292.909514
 21
3154.242831
 31
0.0
100
AcDbText
  0
TEXT
  5
399A
330
431C
100
AcDbEntity
  8
STRUCTURES TEXT
  6
Continuous
370
    30
100
AcDbText
 10
-70301.02999
 20
3149.443409
 30
0.0
 40
1.32
  1
39" BEAM
 50
89.999998
  7
Style-straight_squash
 72
     1
 11
-70301.02999
 21
3154.242831
 31
0.0
100
AcDbText
  0
TEXT
  5
399B
330
431C
100
AcDbEntity
  8
STRUCTURES TEXT
  6
Continuous
370
    30
100
AcDbText
 10
-70308.364614
 20
3149.46202
 30
0.0
 40
1.32
  1
42" BEAM
 50
89.999998
  7
Style-straight_squash
 72
     1
 11
-70308.364614
 21
3154.242831
 31
0.0
100
AcDbText
  0
TEXT
  5
3A2D
330
431C
100
AcDbEntity
  8
STRUCTURES TEXT
  6
Continuous
370
    30
100
AcDbText
 10
-70230.480855
 20
3108.115104
 30
0.0
 40
1.32
  1
2'-8"
  7
Style-straight_squash
 72
     1
 11
-70228.00376
 21
3108.115104
 31
0.0
100
AcDbText
  0
TEXT
  5
3A2E
330
431C
100
AcDbEntity
  8
STRUCTURES TEXT
  6
Continuous
370
   106
100
AcDbText
 10
-70204.74461
 20
3087.538301
 30
0.0
 40
1.98
  1
REINFORCING BAR DETAIL
  7
Style-straight_squash
 72
     1
 11
-70186.392509
 21
3087.538301
 31
0.0
100
AcDbText
  0
TEXT
  5
3A2F
330
431C
100
AcDbEntity
  8
STRUCTURES TEXT
  6
Continuous
370
    30
100
AcDbText
 10
-70196.161321
 20
3082.064954
 30
0.0
 40
1.752
  1
SKEWED BEAMS
  7
Style-straight_squash
 72
     1
 11
-70186.392509
 21
3082.064954
 31
0.0
100
AcDbText
  0
LINE
  5
3A30
330
431C
100
AcDbEntity
  8
STRUCTURES TEXT
  6
Continuous
370
    70
100
AcDbLine
 10
-70205.854639
 20
3086.654217
 30
0.0
 11
-70166.56201
 21
3086.654217
 31
0.0
  0
LINE
  5
3A31
330
431C
100
AcDbEntity
  8
STRUCTURES TEXT
  6
Continuous
370
    70
100
AcDbLine
 10
-70204.577629
 20
3086.064827
 30
0.0
 11
-70167.839021
 21
3086.064827
 31
0.0
  0
LINE
  5
3A32
330
431C
100
AcDbEntity
  8
STRUCTURES TEXT
  6
Continuous
370
    70
100
AcDbLine
 10
-70299.987354
 20
2990.100833
 30
0.0
 11
-70242.947554
 21
2990.100833
 31
0.0
  0
LINE
  5
3A33
330
431C
100
AcDbEntity
  8
STRUCTURES TEXT
  6
Continuous
370
    70
100
AcDbLine
 10
-70298.972294
 20
2989.511444
 30
0.0
 11
-70243.962613
 21
2989.511444
 31
0.0
  0
LINE
  5
3A36
330
431C
100
AcDbEntity
  8
STRUCTURES TEXT
  6
Continuous
370
    70
100
AcDbLine
 10
-70321.953025
 20
3169.09513
 30
0.0
 11
-70265.63359
 21
3169.09513
 31
0.0
  0
LINE
  5
3A37
330
431C
100
AcDbEntity
  8
STRUCTURES TEXT
  6
Continuous
370
    70
100
AcDbLine
 10
-70321.06894
 20
3168.50574
 30
0.0
 11
-70266.517674
 21
3168.50574
 31
0.0
  0
LINE
  5
3A3A
330
431C
100
AcDbEntity
  8
STRUCTURES TEXT
  6
Continuous
370
    70
100
AcDbLine
 10
-70190.920293
 20
3161.007397
 30
0.0
 11
-70127.855624
 21
3161.007397
 31
0.0
  0
LINE
  5
3A3B
330
431C
100
AcDbEntity
  8
STRUCTURES TEXT
  6
Continuous
370
    70
100
AcDbLine
 10
-70189.774258
 20
3160.418008
 30
0.0
 11
-70129.001659
 21
3160.418008
 31
0.0
  0
LINE
  5
3A3C
330
431C
100
AcDbEntity
  8
STRUCTURES TEXT
  6
Continuous
370
    70
100
AcDbLine
 10
-70155.910549
 20
3003.686976
 30
0.0
 11
-70126.899491
 21
3003.686976
 31
0.0
  0
LINE
  5
3A3D
330
431C
100
AcDbEntity
  8
STRUCTURES TEXT
  6
Continuous
370
    70
100
AcDbLine
 10
-70154.862745
 20
3002.966612
 30
0.0
 11
-70128.012782
 21
3002.966612
 31
0.0
  0
TEXT
  5
3A40
330
431C
100
AcDbEntity
  8
STRUCTURES TEXT
  6
Continuous
370
   106
100
AcDbText
 10
-70051.494494
 20
3114.855736
 30
0.0
 40
1.98
  1
LIFTING DETAILS
 50
89.999998
  7
Style-straight_squash
 72
     1
 11
-70051.494494
 21
3126.697064
 31
0.0
100
AcDbText
  0
LINE
  5
3A41
330
431C
100
AcDbEntity
  8
STRUCTURES TEXT
  6
Continuous
370
    70
100
AcDbLine
 10
-70051.041035
 20
3114.997275
 30
0.0
 11
-70051.041035
 21
3139.053095
 31
0.0
  0
LINE
  5
3A42
330
431C
100
AcDbEntity
  8
STRUCTURES TEXT
  6
Continuous
370
    70
100
AcDbLine
 10
-70050.451646
 20
3138.463706
 30
0.0
 11
-70050.451646
 21
3115.586664
 31
0.0
  0
MTEXT
  5
37D5
330
431C
100
AcDbEntity
  8
STRUCTURES TEXT
  6
Continuous
370
    30
100
AcDbMText
 10
-70024.687197
 20
3129.999122
 30
0.0
 40
1.32
 41
0.0
 71
     8
 72
     1
  1
\Fstraight_squash.shx;DEPTH OF BEAM OR\P25" MIN
  7
Style 1
 11
0.2950410886489224
 21
0.9554845660756948
 31
0.0
 73
     2
 44
0.9
  0
LINE
  5
3AA1
330
431C
100
AcDbEntity
  8
Level 3
 62
     2
370
    30
100
AcDbLine
 10
-70318.023464
 20
3232.081898
 30
0.0
 11
-70315.255081
 21
3232.081898
 31
0.0
  0
LINE
  5
3AA2
330
431C
100
AcDbEntity
  8
Level 3
 62
     2
370
    30
100
AcDbLine
 10
-70316.017434
 20
3213.526121
 30
0.0
 11
-70313.249051
 21
3213.526121
 31
0.0
  0
LEADER
  5
3AA3
330
431C
100
AcDbEntity
  8
Level 3
  6
Continuous
 62
     2
370
    30
100
AcDbLeader
  3
Tim
 74
     0
 76
     2
 10
-70297.920851
 20
3223.067301
 30
0.0
 10
-70315.255081
 20
3232.081898
 30
0.0
1001
ACAD
1000
DSTYLE
1002
{
1070
   371
1070
    -2
1070
   147
1040
0.0
1070
   176
1070
     0
1002
}
  0
LEADER
  5
3AA4
330
431C
100
AcDbEntity
  8
Level 3
  6
Continuous
 62
     2
370
    30
100
AcDbLeader
  3
Tim
 74
     0
 76
     2
 10
-70297.443047
 20
3211.499623
 30
0.0
 10
-70313.249051
 20
3213.526121
 30
0.0
1001
ACAD
1000
DSTYLE
1002
{
1070
   371
1070
    -2
1070
   147
1040
0.0
1070
   176
1070
     0
1002
}
  0
LWPOLYLINE
  5
3C49
330
431C
100
AcDbEntity
  8
Level 5
  6
Continuous
 62
    92
370
    53
100
AcDbPolyline
 90
        6
 70
   128
 43
0.0
 10
-70160.881633
 20
3064.544305
 10
-70152.063223
 20
3039.367746
 10
-70150.647552
 20
3039.863603
 10
-70152.487181
 20
3036.040546
 10
-70151.071509
 20
3036.536403
 10
-70142.089462
 20
3010.892656
  0
DIMENSION
  5
366E
330
431C
100
AcDbEntity
  8
Level 3
  6
Continuous
 62
     2
370
    30
100
AcDbDimension
  2
*D1
 10
-70296.920851
 20
3234.0296
 30
0.0
 11
-70300.710194
 21
3234.0296
 31
0.0
 70
   128
 71
     5
 42
-1.0
  3
Tim
100
AcDbAlignedDimension
 13
-70297.920851
 23
3221.691104
 33
0.0
 14
-70296.920851
 24
3231.275599
 34
0.0
100
AcDbRotatedDimension
  0
LEADER
  5
369C
330
431C
100
AcDbEntity
  8
Level 3
  6
Continuous
 62
     2
370
    30
100
AcDbLeader
  3
Tim
 74
     0
 76
     3
 10
-70287.920851
 20
3231.275599
 30
0.0
 10
-70289.813667
 20
3234.614511
 30
0.0
 10
-70285.400401
 20
3234.614511
 30
0.0
1001
ACAD
1000
DSTYLE
1002
{
1070
   371
1070
    -2
1070
   147
1040
0.0
1070
   176
1070
     0
1002
}
  0
POINT
  5
3C4C
330
431C
100
AcDbEntity
  8
STRUCTURES TEXT
 62
   211
100
AcDbPoint
 10
-70297.920851
 20
3221.691104
 30
0.0
  0
LINE
  5
3C4D
330
431C
100
AcDbEntity
  8
STRUCTURES TEXT
 62
   211
100
AcDbLine
 10
-70297.920851
 20
3220.27689
 30
0.0
 11
-70296.920851
 21
3221.27689
 31
0.0
  0
LINE
  5
3C4E
330
431C
100
AcDbEntity
  8
STRUCTURES TEXT
 62
   211
100
AcDbLine
 10
-70297.920851
 20
3218.862677
 30
0.0
 11
-70296.920851
 21
3219.862677
 31
0.0
  0
LINE
  5
3C4F
330
431C
100
AcDbEntity
  8
STRUCTURES TEXT
 62
   211
100
AcDbLine
 10
-70297.920851
 20
3217.448463
 30
0.0
 11
-70296.920851
 21
3218.448463
 31
0.0
  0
LINE
  5
3C50
330
431C
100
AcDbEntity
  8
STRUCTURES TEXT
 62
   211
100
AcDbLine
 10
-70297.920851
 20
3216.03425
 30
0.0
 11
-70296.920851
 21
3217.03425
 31
0.0
  0
LINE
  5
3C51
330
431C
100
AcDbEntity
  8
STRUCTURES TEXT
 62
   211
100
AcDbLine
 10
-70297.920851
 20
3214.620036
 30
0.0
 11
-70296.920851
 21
3215.620036
 31
0.0
  0
LINE
  5
3C52
330
431C
100
AcDbEntity
  8
STRUCTURES TEXT
 62
   211
100
AcDbLine
 10
-70297.920851
 20
3213.205822
 30
0.0
 11
-70296.920851
 21
3214.205822
 31
0.0
  0
LINE
  5
3C53
330
431C
100
AcDbEntity
  8
STRUCTURES TEXT
 62
   211
100
AcDbLine
 10
-70297.920851
 20
3211.791609
 30
0.0
 11
-70296.920851
 21
3212.791609
 31
0.0
  0
LINE
  5
3C54
330
431C
100
AcDbEntity
  8
STRUCTURES TEXT
 62
   211
100
AcDbLine
 10
-70297.920851
 20
3210.377395
 30
0.0
 11
-70296.920851
 21
3211.377395
 31
0.0
  0
LINE
  5
3C55
330
431C
100
AcDbEntity
  8
STRUCTURES TEXT
 62
   211
100
AcDbLine
 10
-70297.920851
 20
3208.963182
 30
0.0
 11
-70296.920851
 21
3209.963182
 31
0.0
  0
LINE
  5
3C56
330
431C
100
AcDbEntity
  8
STRUCTURES TEXT
 62
   211
100
AcDbLine
 10
-70297.920851
 20
3207.548968
 30
0.0
 11
-70296.920851
 21
3208.548968
 31
0.0
  0
LINE
  5
3C57
330
431C
100
AcDbEntity
  8
STRUCTURES TEXT
 62
   211
100
AcDbLine
 10
-70297.920851
 20
3206.134755
 30
0.0
 11
-70296.920851
 21
3207.134755
 31
0.0
  0
LINE
  5
3C58
330
431C
100
AcDbEntity
  8
STRUCTURES TEXT
 62
   211
100
AcDbLine
 10
-70297.920851
 20
3204.720541
 30
0.0
 11
-70296.920851
 21
3205.720541
 31
0.0
  0
LINE
  5
3C59
330
431C
100
AcDbEntity
  8
STRUCTURES TEXT
 62
   211
100
AcDbLine
 10
-70297.920851
 20
3203.306327
 30
0.0
 11
-70296.920851
 21
3204.306327
 31
0.0
  0
LINE
  5
3C5A
330
431C
100
AcDbEntity
  8
STRUCTURES TEXT
 62
   211
100
AcDbLine
 10
-70297.920851
 20
3201.892114
 30
0.0
 11
-70296.920851
 21
3202.892114
 31
0.0
  0
LINE
  5
3C5B
330
431C
100
AcDbEntity
  8
STRUCTURES TEXT
 62
   211
100
AcDbLine
 10
-70297.33145
 20
3201.067301
 30
0.0
 11
-70296.33145
 21
3202.067301
 31
0.0
  0
LINE
  5
3C5C
330
431C
100
AcDbEntity
  8
STRUCTURES TEXT
 62
   211
100
AcDbLine
 10
-70295.917237
 20
3201.067301
 30
0.0
 11
-70294.917237
 21
3202.067301
 31
0.0
  0
LINE
  5
3C5D
330
431C
100
AcDbEntity
  8
STRUCTURES TEXT
 62
   211
100
AcDbLine
 10
-70294.503023
 20
3201.067301
 30
0.0
 11
-70293.503023
 21
3202.067301
 31
0.0
  0
LINE
  5
3C5E
330
431C
100
AcDbEntity
  8
STRUCTURES TEXT
 62
   211
100
AcDbLine
 10
-70293.088809
 20
3201.067301
 30
0.0
 11
-70292.420851
 21
3201.73526
 31
0.0
  0
LINE
  5
3C60
330
431C
100
AcDbEntity
  8
STRUCTURES TEXT
 62
   211
100
AcDbLine
 10
-70283.935569
 20
3202.067301
 30
0.0
 11
-70283.420851
 21
3201.552582
 31
0.0
  0
LINE
  5
3C61
330
431C
100
AcDbEntity
  8
STRUCTURES TEXT
 62
   211
100
AcDbLine
 10
-70285.349783
 20
3202.067301
 30
0.0
 11
-70284.349783
 21
3201.067301
 31
0.0
  0
LINE
  5
3C62
330
431C
100
AcDbEntity
  8
STRUCTURES TEXT
 62
   211
100
AcDbLine
 10
-70286.763996
 20
3202.067301
 30
0.0
 11
-70285.763996
 21
3201.067301
 31
0.0
  0
LINE
  5
3C63
330
431C
100
AcDbEntity
  8
STRUCTURES TEXT
 62
   211
100
AcDbLine
 10
-70288.17821
 20
3202.067301
 30
0.0
 11
-70287.17821
 21
3201.067301
 31
0.0
  0
LINE
  5
3C64
330
431C
100
AcDbEntity
  8
STRUCTURES TEXT
 62
   211
100
AcDbLine
 10
-70289.592424
 20
3202.067301
 30
0.0
 11
-70288.592424
 21
3201.067301
 31
0.0
  0
LINE
  5
3C65
330
431C
100
AcDbEntity
  8
STRUCTURES TEXT
 62
   211
100
AcDbLine
 10
-70291.006637
 20
3202.067301
 30
0.0
 11
-70290.006637
 21
3201.067301
 31
0.0
  0
POINT
  5
3C66
330
431C
100
AcDbEntity
  8
STRUCTURES TEXT
 62
   211
100
AcDbPoint
 10
-70292.420851
 20
3202.067301
 30
0.0
  0
LINE
  5
3C67
330
431C
100
AcDbEntity
  8
STRUCTURES TEXT
 62
   211
100
AcDbLine
 10
-70292.420851
 20
3202.067301
 30
0.0
 11
-70291.420851
 21
3201.067301
 31
0.0
  0
POINT
  5
3C6C
330
431C
100
AcDbEntity
  8
STRUCTURES TEXT
 62
   211
100
AcDbPoint
 10
-70153.568368
 20
3205.427401
 30
0.0
  0
LINE
  5
3C6D
330
431C
100
AcDbEntity
  8
STRUCTURES TEXT
 62
   211
100
AcDbLine
 10
-70154.978619
 20
3205.423438
 30
0.0
 11
-70154.046938
 21
3204.491758
 31
0.0
  0
LINE
  5
3C6E
330
431C
100
AcDbEntity
  8
STRUCTURES TEXT
 62
   211
100
AcDbLine
 10
-70156.388869
 20
3205.419475
 30
0.0
 11
-70155.462643
 21
3204.493249
 31
0.0
  0
LINE
  5
3C6F
330
431C
100
AcDbEntity
  8
STRUCTURES TEXT
 62
   211
100
AcDbLine
 10
-70157.79912
 20
3205.415512
 30
0.0
 11
-70156.878349
 21
3204.494741
 31
0.0
  0
LINE
  5
3C70
330
431C
100
AcDbEntity
  8
STRUCTURES TEXT
 62
   211
100
AcDbLine
 10
-70159.209371
 20
3205.41155
 30
0.0
 11
-70158.294054
 21
3204.496232
 31
0.0
  0
LINE
  5
3C71
330
431C
100
AcDbEntity
  8
STRUCTURES TEXT
 62
   211
100
AcDbLine
 10
-70160.619621
 20
3205.407587
 30
0.0
 11
-70159.709759
 21
3204.497724
 31
0.0
  0
LINE
  5
3C72
330
431C
100
AcDbEntity
  8
STRUCTURES TEXT
 62
   211
100
AcDbLine
 10
-70162.029872
 20
3205.403624
 30
0.0
 11
-70161.125464
 21
3204.499215
 31
0.0
  0
LINE
  5
3C73
330
431C
100
AcDbEntity
  8
STRUCTURES TEXT
 62
   211
100
AcDbLine
 10
-70162.573214
 20
3204.532752
 30
0.0
 11
-70162.541169
 21
3204.500707
 31
0.0
  0
POINT
  5
3C7A
330
431C
100
AcDbEntity
  8
STRUCTURES TEXT
 62
   211
100
AcDbPoint
 10
-70167.070791
 20
3205.427401
 30
0.0
  0
LINE
  5
3C7B
330
431C
100
AcDbEntity
  8
STRUCTURES TEXT
 62
   211
100
AcDbLine
 10
-70166.6178
 20
3204.466178
 30
0.0
 11
-70165.656577
 21
3205.427401
 31
0.0
  0
LINE
  5
3C7C
330
431C
100
AcDbEntity
  8
STRUCTURES TEXT
 62
   211
100
AcDbLine
 10
-70165.203587
 20
3204.466178
 30
0.0
 11
-70164.242364
 21
3205.427401
 31
0.0
  0
LINE
  5
3C7D
330
431C
100
AcDbEntity
  8
STRUCTURES TEXT
 62
   211
100
AcDbLine
 10
-70163.789373
 20
3204.466178
 30
0.0
 11
-70162.82815
 21
3205.427401
 31
0.0
  0
LINE
  5
3C7E
330
431C
100
AcDbEntity
  8
STRUCTURES TEXT
 62
   254
370
    53
100
AcDbLine
 10
-70005.464224
 20
3141.567449
 30
0.0
 11
-70005.343686
 21
3141.957741
 31
0.0
  0
LINE
  5
3C7F
330
431C
100
AcDbEntity
  8
STRUCTURES TEXT
 62
   254
370
    53
100
AcDbLine
 10
-70000.911961
 20
3141.567449
 30
0.0
 11
-70001.414224
 21
3142.184724
 31
0.0
  0
TEXT
  5
3CA5
330
431C
100
AcDbEntity
  8
Level 3
  6
Continuous
 62
     1
370
    30
100
AcDbText
 10
-70175.969098
 20
3122.2994
 30
0.0
 40
1.3125
  1
2' -6%%129" 
 50
90.0
  7
Style-straight_squash
 72
     1
 11
-70176.625348
 21
3126.350093
 31
0.0
100
AcDbText
 73
     2
  0
LINE
  5
3CA6
330
431C
100
AcDbEntity
  8
Level 3
  6
Continuous
 62
     2
370
    30
100
AcDbLine
 10
-70175.312848
 20
3149.225093
 30
0.0
 11
-70175.312848
 21
3103.475093
 31
0.0
  0
SOLID
  5
3CA7
330
431C
100
AcDbEntity
  8
Level 3
  6
Continuous
 62
     2
370
    30
100
AcDbTrace
 10
70175.640973
 20
3147.912593
 30
0.0
 11
70175.312848
 21
3149.225093
 31
0.0
 12
70174.984723
 22
3147.912593
 32
0.0
 13
70174.984723
 23
3147.912593
 33
0.0
210
0.0
220
0.0
230
-1.0
  0
SOLID
  5
3CA8
330
431C
100
AcDbEntity
  8
Level 3
  6
Continuous
 62
     2
370
    30
100
AcDbTrace
 10
-70174.984723
 20
3104.787593
 30
0.0
 11
-70175.312848
 21
3103.475093
 31
0.0
 12
-70175.640973
 22
3104.787593
 32
0.0
 13
-70175.640973
 23
3104.787593
 33
0.0
  0
LINE
  5
3CA9
330
431C
100
AcDbEntity
  8
Level 3
  6
Continuous
 62
     2
370
    30
100
AcDbLine
 10
-70160.170158
 20
3149.225093
 30
0.0
 11
-70175.969098
 21
3149.225093
 31
0.0
  0
LINE
  5
3CAA
330
431C
100
AcDbEntity
  8
Level 3
  6
Continuous
 62
     2
370
    30
100
AcDbLine
 10
-70135.704941
 20
3103.475093
 30
0.0
 11
-70175.969098
 21
3103.475093
 31
0.0
  0
LINE
  5
3CAF
330
431C
100
AcDbEntity
  8
Level 3
  6
Continuous
 62
     2
370
    30
100
AcDbLine
 10
-70136.510108
 20
3095.402857
 30
0.0
 11
-70085.022969
 21
3095.402857
 31
0.0
  0
SOLID
  5
3CB0
330
431C
100
AcDbEntity
  8
Level 3
  6
Continuous
 62
     2
370
    30
100
AcDbTrace
 10
-70135.197608
 20
3095.074732
 30
0.0
 11
-70136.510108
 21
3095.402857
 31
0.0
 12
-70135.197608
 22
3095.730982
 32
0.0
 13
-70135.197608
 23
3095.730982
 33
0.0
  0
SOLID
  5
3CB1
330
431C
100
AcDbEntity
  8
Level 3
  6
Continuous
 62
     2
370
    30
100
AcDbTrace
 10
70086.335469
 20
3095.730982
 30
0.0
 11
70085.022969
 21
3095.402857
 31
0.0
 12
70086.335469
 22
3095.074732
 32
0.0
 13
70086.335469
 23
3095.074732
 33
0.0
210
0.0
220
0.0
230
-1.0
  0
LINE
  5
3CB2
330
431C
100
AcDbEntity
  8
Level 3
  6
Continuous
 62
     2
370
    30
100
AcDbLine
 10
-70136.510108
 20
3103.662593
 30
0.0
 11
-70136.510108
 21
3094.746607
 31
0.0
  0
LINE
  5
3CB3
330
431C
100
AcDbEntity
  8
Level 3
  6
Continuous
 62
     2
370
    30
100
AcDbLine
 10
-70085.022969
 20
3102.818843
 30
0.0
 11
-70085.022969
 21
3094.746607
 31
0.0
  0
TEXT
  5
3CB6
330
431C
100
AcDbEntity
  8
STRUCTURES TEXT
  6
Continuous
370
    30
100
AcDbText
 10
-70121.761533
 20
3127.742183
 30
0.0
 40
1.752
  1
NO. 4 EB BAR
  7
Style-straight_squash
 72
     1
 11
-70112.780501
 21
3127.742183
 31
0.0
100
AcDbText
  0
LINE
  5
3CC0
330
431C
100
AcDbEntity
  8
Level 3
  6
Continuous
 62
     2
370
    30
100
AcDbLine
 10
-70135.048691
 20
3105.818843
 30
0.0
 11
-70135.048691
 21
3125.139815
 31
0.0
  0
ARC
  5
3CC2
330
431C
100
AcDbEntity
  8
Level 3
  6
Continuous
 62
     2
370
    30
100
AcDbCircle
 10
-70135.048691
 20
3103.287593
 30
0.0
 40
21.19597175757075
100
AcDbArc
 50
90.0
 51
120.0
  0
SOLID
  5
3CC3
330
431C
100
AcDbEntity
  8
Level 3
  6
Continuous
 62
     2
370
    30
100
AcDbTrace
 10
70136.37072
 20
3124.770896
 30
0.0
 11
70135.048691
 21
3124.483565
 31
0.0
 12
70136.350402
 22
3124.114961
 32
0.0
 13
70136.350402
 23
3124.114961
 33
0.0
210
0.0
220
0.0
230
-1.0
  0
SOLID
  5
3CC4
330
431C
100
AcDbEntity
  8
Level 3
  6
Continuous
 62
     2
370
    30
100
AcDbTrace
 10
-70144.335059
 20
3121.975479
 30
0.0
 11
-70145.646676
 21
3121.643843
 31
0.0
 12
-70144.645431
 22
3122.553694
 32
0.0
 13
-70144.645431
 23
3122.553694
 33
0.0
  0
MTEXT
  5
3CCA
102
{ACAD_REACTORS
330
3CCE
330
3CCE
102
}
330
431C
100
AcDbEntity
  8
Level 3
 62
    30
370
    30
100
AcDbMText
 10
-70135.106838
 20
3135.72517
 30
0.0
 40
1.3125
 41
0.0
 71
     4
 72
     1
  1
\C1;ANGLE OF BEAM SKEW
  7
Style-straight_squash
 73
     2
 44
0.914286
  0
LEADER
  5
3CCE
330
431C
100
AcDbEntity
  8
Level 3
  6
Continuous
 62
     2
370
    30
100
AcDbLeader
  3
Tim
 73
     0
 74
     0
 75
     1
 40
2.625
 41
22.964905
 76
     3
 10
-70140.534612
 20
3123.76133
 30
0.0
 10
-70137.075588
 20
3135.72517
 30
0.0
 10
-70135.763088
 20
3135.72517
 30
0.0
340
3CCA
1001
ACAD
1000
DSTYLE
1002
{
1070
    77
1070
     0
1070
   371
1070
    -2
1070
   147
1040
0.0
1070
   176
1070
     0
1002
}
  0
INSERT
  5
3CCF
330
431C
100
AcDbEntity
  8
REBAR
 62
    30
370
    53
100
AcDbBlockReference
  2
*U2
 10
-70123.112202
 20
3126.35006
 30
0.0
  0
TEXT
  5
3D1D
330
431C
100
AcDbEntity
  8
STRUCTURES TEXT
 62
     1
100
AcDbText
 10
-70292.706718
 20
2986.396625
 30
0.0
 40
1.75
  1
WO/POST-TEN. ACCESS POCKET
  7
Style-straight_squash
 72
     1
 11
-70271.80146
 21
2988.146625
 31
0.0
100
AcDbText
 73
     3
  0
LINE
  5
3D39
330
431C
100
AcDbEntity
  8
STRUCTURES TEXT
  6
Continuous
 62
   252
370
   100
100
AcDbLine
 10
-70336.371459
 20
3073.185689
 30
0.0
 11
-70305.194544
 21
3019.185689
 31
0.0
  0
LINE
  5
3D3A
330
431C
100
AcDbEntity
  8
STRUCTURES TEXT
  6
Continuous
 62
     2
370
    40
100
AcDbLine
 10
-70260.610897
 20
3022.185689
 30
0.0
 11
-70260.610897
 21
3070.185689
 31
0.0
  0
LINE
  5
3D3B
330
431C
100
AcDbEntity
  8
STRUCTURES TEXT
  6
Continuous
 62
     2
370
    40
100
AcDbLine
 10
-70265.110897
 20
3022.185689
 30
0.0
 11
-70270.32371
 21
3070.185689
 31
0.0
  0
HATCH
  5
3D3C
330
431C
100
AcDbEntity
  8
STRUCTURES TEXT
  6
Continuous
 62
     2
370
     0
100
AcDbHatch
 10
0.0
 20
0.0
 30
0.0
210
0.0
220
0.0
230
1.0
  2
SOLID
 70
     1
 71
     0
 91
        1
 92
        1
 93
        1
 72
     2
 10
-70260.61089660872
 20
3069.810688584458
 40
0.375
 50
0.0
 51
360.0
 73
     1
 97
        0
 75
     0
 76
     1
 98
        0
  0
HATCH
  5
3D3D
330
431C
100
AcDbEntity
  8
STRUCTURES TEXT
  6
Continuous
 62
     2
370
     0
100
AcDbHatch
 10
0.0
 20
0.0
 30
0.0
210
0.0
220
0.0
230
1.0
  2
SOLID
 70
     1
 71
     0
 91
        1
 92
        1
 93
        1
 72
     2
 10
-70270.32370952988
 20
3069.810688584458
 40
0.375
 50
0.0
 51
360.0
 73
     1
 97
        0
 75
     0
 76
     1
 98
        0
  0
HATCH
  5
3D3E
330
431C
100
AcDbEntity
  8
STRUCTURES TEXT
  6
Continuous
 62
     2
370
     0
100
AcDbHatch
 10
0.0
 20
0.0
 30
0.0
210
0.0
220
0.0
230
1.0
  2
SOLID
 70
     1
 71
     0
 91
        1
 92
        1
 93
        1
 72
     2
 10
-70320.97640296374
 20
3069.810688584458
 40
0.375
 50
0.0
 51
360.0
 73
     1
 97
        0
 75
     0
 76
     1
 98
        0
  0
HATCH
  5
3D3F
330
431C
100
AcDbEntity
  8
STRUCTURES TEXT
  6
Continuous
 62
     2
370
     0
100
AcDbHatch
 10
0.0
 20
0.0
 30
0.0
210
0.0
220
0.0
230
1.0
  2
SOLID
 70
     1
 71
     0
 91
        1
 92
        1
 93
        1
 72
     2
 10
-70326.18712785725
 20
3069.810688584458
 40
0.375
 50
0.0
 51
360.0
 73
     1
 97
        0
 75
     0
 76
     1
 98
        0
  0
HATCH
  5
3D40
330
431C
100
AcDbEntity
  8
STRUCTURES TEXT
  6
Continuous
 62
     2
370
     0
100
AcDbHatch
 10
0.0
 20
0.0
 30
0.0
210
0.0
220
0.0
230
1.0
  2
SOLID
 70
     1
 71
     0
 91
        1
 92
        1
 93
        1
 72
     2
 10
-70331.4771033195
 20
3069.810688584458
 40
0.375
 50
0.0
 51
360.0
 73
     1
 97
        0
 75
     0
 76
     1
 98
        0
  0
HATCH
  5
3D41
330
431C
100
AcDbEntity
  8
STRUCTURES TEXT
  6
Continuous
 62
     2
370
     0
100
AcDbHatch
 10
0.0
 20
0.0
 30
0.0
210
0.0
220
0.0
230
1.0
  2
SOLID
 70
     1
 71
     0
 91
        1
 92
        1
 93
        1
 72
     2
 10
-70304.12575078903
 20
3022.586489146181
 40
0.375
 50
0.0
 51
360.0
 73
     1
 97
        0
 75
     0
 76
     1
 98
        0
  0
HATCH
  5
3D42
330
431C
100
AcDbEntity
  8
STRUCTURES TEXT
  6
Continuous
 62
     2
370
     0
100
AcDbHatch
 10
0.0
 20
0.0
 30
0.0
210
0.0
220
0.0
230
1.0
  2
SOLID
 70
     1
 71
     0
 91
        1
 92
        1
 93
        1
 72
     2
 10
-70298.91502589552
 20
3022.586489146181
 40
0.375
 50
0.0
 51
360.0
 73
     1
 97
        0
 75
     0
 76
     1
 98
        0
  0
HATCH
  5
3D43
330
431C
100
AcDbEntity
  8
STRUCTURES TEXT
  6
Continuous
 62
     2
370
     0
100
AcDbHatch
 10
0.0
 20
0.0
 30
0.0
210
0.0
220
0.0
230
1.0
  2
SOLID
 70
     1
 71
     0
 91
        1
 92
        1
 93
        1
 72
     2
 10
-70293.74392628635
 20
3022.586489146181
 40
0.375
 50
0.0
 51
360.0
 73
     1
 97
        0
 75
     0
 76
     1
 98
        0
  0
HATCH
  5
3D44
330
431C
100
AcDbEntity
  8
STRUCTURES TEXT
  6
Continuous
 62
     2
370
     0
100
AcDbHatch
 10
0.0
 20
0.0
 30
0.0
210
0.0
220
0.0
230
1.0
  2
SOLID
 70
     1
 71
     0
 91
        1
 92
        1
 93
        1
 72
     2
 10
-70283.32247649931
 20
3022.586489146181
 40
0.375
 50
0.0
 51
360.0
 73
     1
 97
        0
 75
     0
 76
     1
 98
        0
  0
HATCH
  5
3D45
330
431C
100
AcDbEntity
  8
STRUCTURES TEXT
  6
Continuous
 62
     2
370
     0
100
AcDbHatch
 10
0.0
 20
0.0
 30
0.0
210
0.0
220
0.0
230
1.0
  2
SOLID
 70
     1
 71
     0
 91
        1
 92
        1
 93
        1
 72
     2
 10
-70279.08257107262
 20
3022.586489146181
 40
0.375
 50
0.0
 51
360.0
 73
     1
 97
        0
 75
     0
 76
     1
 98
        0
  0
HATCH
  5
3D46
330
431C
100
AcDbEntity
  8
STRUCTURES TEXT
  6
Continuous
 62
     2
370
     0
100
AcDbHatch
 10
0.0
 20
0.0
 30
0.0
210
0.0
220
0.0
230
1.0
  2
SOLID
 70
     1
 71
     0
 91
        1
 92
        1
 93
        1
 72
     2
 10
-70274.26809902272
 20
3022.586489146181
 40
0.375
 50
0.0
 51
360.0
 73
     1
 97
        0
 75
     0
 76
     1
 98
        0
  0
HATCH
  5
3D47
330
431C
100
AcDbEntity
  8
STRUCTURES TEXT
  6
Continuous
 62
     2
370
     0
100
AcDbHatch
 10
0.0
 20
0.0
 30
0.0
210
0.0
220
0.0
230
1.0
  2
SOLID
 70
     1
 71
     0
 91
        1
 92
        1
 93
        1
 72
     2
 10
-70269.71119132116
 20
3022.586489146181
 40
0.375
 50
0.0
 51
360.0
 73
     1
 97
        0
 75
     0
 76
     1
 98
        0
  0
HATCH
  5
3D48
330
431C
100
AcDbEntity
  8
STRUCTURES TEXT
  6
Continuous
 62
     2
370
     0
100
AcDbHatch
 10
0.0
 20
0.0
 30
0.0
210
0.0
220
0.0
230
1.0
  2
SOLID
 70
     1
 71
     0
 91
        1
 92
        1
 93
        1
 72
     2
 10
-70265.15428361957
 20
3022.586489146181
 40
0.375
 50
0.0
 51
360.0
 73
     1
 97
        0
 75
     0
 76
     1
 98
        0
  0
HATCH
  5
3D49
330
431C
100
AcDbEntity
  8
STRUCTURES TEXT
  6
Continuous
 62
     2
370
     0
100
AcDbHatch
 10
0.0
 20
0.0
 30
0.0
210
0.0
220
0.0
230
1.0
  2
SOLID
 70
     1
 71
     0
 91
        1
 92
        1
 93
        1
 72
     2
 10
-70260.61718856019
 20
3022.586489146181
 40
0.375
 50
0.0
 51
360.0
 73
     1
 97
        0
 75
     0
 76
     1
 98
        0
  0
HATCH
  5
3D4A
330
431C
100
AcDbEntity
  8
STRUCTURES TEXT
  6
Continuous
 62
     2
370
     0
100
AcDbHatch
 10
0.0
 20
0.0
 30
0.0
210
0.0
220
0.0
230
1.0
  2
SOLID
 70
     1
 71
     0
 91
        1
 92
        1
 93
        1
 72
     2
 10
-70280.29238053574
 20
3069.807445203558
 40
0.375
 50
0.0
 51
360.0
 73
     1
 97
        0
 75
     0
 76
     1
 98
        0
  0
HATCH
  5
3D4B
330
431C
100
AcDbEntity
  8
STRUCTURES TEXT
  6
Continuous
 62
     2
370
     0
100
AcDbHatch
 10
0.0
 20
0.0
 30
0.0
210
0.0
220
0.0
230
1.0
  2
SOLID
 70
     1
 71
     0
 91
        1
 92
        1
 93
        1
 72
     2
 10
-70290.39682804786
 20
3069.807445203558
 40
0.375
 50
0.0
 51
360.0
 73
     1
 97
        0
 75
     0
 76
     1
 98
        0
  0
HATCH
  5
3D4C
330
431C
100
AcDbEntity
  8
STRUCTURES TEXT
  6
Continuous
 62
     2
370
     0
100
AcDbHatch
 10
0.0
 20
0.0
 30
0.0
210
0.0
220
0.0
230
1.0
  2
SOLID
 70
     1
 71
     0
 91
        1
 92
        1
 93
        1
 72
     2
 10
-70300.52108820222
 20
3069.807445203558
 40
0.375
 50
0.0
 51
360.0
 73
     1
 97
        0
 75
     0
 76
     1
 98
        0
  0
HATCH
  5
3D4D
330
431C
100
AcDbEntity
  8
STRUCTURES TEXT
  6
Continuous
 62
     2
370
     0
100
AcDbHatch
 10
0.0
 20
0.0
 30
0.0
210
0.0
220
0.0
230
1.0
  2
SOLID
 70
     1
 71
     0
 91
        1
 92
        1
 93
        1
 72
     2
 10
-70310.60572307221
 20
3069.807445203558
 40
0.375
 50
0.0
 51
360.0
 73
     1
 97
        0
 75
     0
 76
     1
 98
        0
  0
LINE
  5
3D4E
330
431C
100
AcDbEntity
  8
STRUCTURES TEXT
  6
Continuous
 62
     2
370
    40
100
AcDbLine
 10
-70251.610897
 20
3070.185689
 30
0.0
 11
-70251.610897
 21
3022.185689
 31
0.0
  0
LINE
  5
3D4F
330
431C
100
AcDbEntity
  8
STRUCTURES TEXT
  6
Continuous
 62
     2
370
    40
100
AcDbLine
 10
-70242.610897
 20
3070.185689
 30
0.0
 11
-70242.610897
 21
3022.185689
 31
0.0
  0
LINE
  5
3D50
330
431C
100
AcDbEntity
  8
STRUCTURES TEXT
  6
Continuous
 62
     2
370
    40
100
AcDbLine
 10
-70233.610897
 20
3070.185689
 30
0.0
 11
-70233.610897
 21
3022.185689
 31
0.0
  0
HATCH
  5
3D51
330
431C
100
AcDbEntity
  8
STRUCTURES TEXT
  6
Continuous
 62
     2
370
     0
100
AcDbHatch
 10
0.0
 20
0.0
 30
0.0
210
0.0
220
0.0
230
1.0
  2
SOLID
 70
     1
 71
     0
 91
        1
 92
        1
 93
        1
 72
     2
 10
-70251.61089660872
 20
3069.810688584458
 40
0.375
 50
0.0
 51
360.0
 73
     1
 97
        0
 75
     0
 76
     1
 98
        0
  0
HATCH
  5
3D52
330
431C
100
AcDbEntity
  8
STRUCTURES TEXT
  6
Continuous
 62
     2
370
     0
100
AcDbHatch
 10
0.0
 20
0.0
 30
0.0
210
0.0
220
0.0
230
1.0
  2
SOLID
 70
     1
 71
     0
 91
        1
 92
        1
 93
        1
 72
     2
 10
-70242.61089660871
 20
3069.810688584458
 40
0.375
 50
0.0
 51
360.0
 73
     1
 97
        0
 75
     0
 76
     1
 98
        0
  0
HATCH
  5
3D53
330
431C
100
AcDbEntity
  8
STRUCTURES TEXT
  6
Continuous
 62
     2
370
     0
100
AcDbHatch
 10
0.0
 20
0.0
 30
0.0
210
0.0
220
0.0
230
1.0
  2
SOLID
 70
     1
 71
     0
 91
        1
 92
        1
 93
        1
 72
     2
 10
-70233.61089660872
 20
3069.810688584458
 40
0.375
 50
0.0
 51
360.0
 73
     1
 97
        0
 75
     0
 76
     1
 98
        0
  0
HATCH
  5
3D54
330
431C
100
AcDbEntity
  8
STRUCTURES TEXT
  6
Continuous
 62
     2
370
     0
100
AcDbHatch
 10
0.0
 20
0.0
 30
0.0
210
0.0
220
0.0
230
1.0
  2
SOLID
 70
     1
 71
     0
 91
        1
 92
        1
 93
        1
 72
     2
 10
-70233.50234944574
 20
3022.48371106485
 40
0.375
 50
0.0
 51
360.0
 73
     1
 97
        0
 75
     0
 76
     1
 98
        0
  0
HATCH
  5
3D55
330
431C
100
AcDbEntity
  8
STRUCTURES TEXT
  6
Continuous
 62
     2
370
     0
100
AcDbHatch
 10
0.0
 20
0.0
 30
0.0
210
0.0
220
0.0
230
1.0
  2
SOLID
 70
     1
 71
     0
 91
        1
 92
        1
 93
        1
 72
     2
 10
-70242.55177376176
 20
3022.48371106485
 40
0.375
 50
0.0
 51
360.0
 73
     1
 97
        0
 75
     0
 76
     1
 98
        0
  0
HATCH
  5
3D56
330
431C
100
AcDbEntity
  8
STRUCTURES TEXT
  6
Continuous
 62
     2
370
     0
100
AcDbHatch
 10
0.0
 20
0.0
 30
0.0
210
0.0
220
0.0
230
1.0
  2
SOLID
 70
     1
 71
     0
 91
        1
 92
        1
 93
        1
 72
     2
 10
-70251.6457765227
 20
3022.48371106485
 40
0.375
 50
0.0
 51
360.0
 73
     1
 97
        0
 75
     0
 76
     1
 98
        0
  0
HATCH
  5
3D57
330
431C
100
AcDbEntity
  8
Level 1
  6
Continuous
 62
    92
370
    30
100
AcDbHatch
 10
0.0
 20
0.0
 30
0.0
210
0.0
220
0.0
230
1.0
  2
SOLID
 70
     1
 71
     0
 91
        1
 92
        1
 93
        1
 72
     2
 10
-70328.20223030746
 20
3064.935688584458
 40
0.375
 50
0.0
 51
360.0
 73
     1
 97
        0
 75
     0
 76
     1
 98
        0
  0
LINE
  5
3D58
330
431C
100
AcDbEntity
  8
Level 1
  6
Continuous
 62
    92
370
    40
100
AcDbLine
 10
-70324.200749
 20
3058.654439
 30
0.0
 11
-70236.569823
 21
3058.654439
 31
0.0
  0
HATCH
  5
3D59
330
431C
100
AcDbEntity
  8
Level 1
  6
Continuous
 62
    92
370
    30
100
AcDbHatch
 10
0.0
 20
0.0
 30
0.0
210
0.0
220
0.0
230
1.0
  2
SOLID
 70
     1
 71
     0
 91
        1
 92
        1
 93
        1
 72
     2
 10
-70324.57574892911
 20
3058.654438584458
 40
0.375
 50
0.0
 51
360.0
 73
     1
 97
        0
 75
     0
 76
     1
 98
        0
  0
HATCH
  5
3D5A
330
431C
100
AcDbEntity
  8
Level 1
  6
Continuous
 62
    92
370
    30
100
AcDbHatch
 10
0.0
 20
0.0
 30
0.0
210
0.0
220
0.0
230
1.0
  2
SOLID
 70
     1
 71
     0
 91
        1
 92
        1
 93
        1
 72
     2
 10
-70320.94926755076
 20
3052.373188584459
 40
0.375
 50
0.0
 51
360.0
 73
     1
 97
        0
 75
     0
 76
     1
 98
        0
  0
LINE
  5
3D5B
330
431C
100
AcDbEntity
  8
Level 1
  6
Continuous
 62
    92
370
    40
100
AcDbLine
 10
-70316.947786
 20
3046.091939
 30
0.0
 11
-70236.569823
 21
3046.091939
 31
0.0
  0
HATCH
  5
3D5C
330
431C
100
AcDbEntity
  8
Level 1
  6
Continuous
 62
    92
370
    30
100
AcDbHatch
 10
0.0
 20
0.0
 30
0.0
210
0.0
220
0.0
230
1.0
  2
SOLID
 70
     1
 71
     0
 91
        1
 92
        1
 93
        1
 72
     2
 10
-70317.32278617242
 20
3046.091938584458
 40
0.375
 50
0.0
 51
360.0
 73
     1
 97
        0
 75
     0
 76
     1
 98
        0
  0
HATCH
  5
3D5D
330
431C
100
AcDbEntity
  8
Level 1
  6
Continuous
 62
    92
370
    30
100
AcDbHatch
 10
0.0
 20
0.0
 30
0.0
210
0.0
220
0.0
230
1.0
  2
SOLID
 70
     1
 71
     0
 91
        1
 92
        1
 93
        1
 72
     2
 10
-70313.69630479405
 20
3039.810688584458
 40
0.375
 50
0.0
 51
360.0
 73
     1
 97
        0
 75
     0
 76
     1
 98
        0
  0
LINE
  5
3D5E
330
431C
100
AcDbEntity
  8
Level 1
  6
Continuous
 62
    92
370
    40
100
AcDbLine
 10
-70309.694823
 20
3033.529439
 30
0.0
 11
-70236.569823
 21
3033.529439
 31
0.0
  0
HATCH
  5
3D5F
330
431C
100
AcDbEntity
  8
Level 1
  6
Continuous
 62
    92
370
    30
100
AcDbHatch
 10
0.0
 20
0.0
 30
0.0
210
0.0
220
0.0
230
1.0
  2
SOLID
 70
     1
 71
     0
 91
        1
 92
        1
 93
        1
 72
     2
 10
-70310.06982341572
 20
3033.529438584459
 40
0.375
 50
0.0
 51
360.0
 73
     1
 97
        0
 75
     0
 76
     1
 98
        0
  0
HATCH
  5
3D60
330
431C
100
AcDbEntity
  8
Level 1
  6
Continuous
 62
    92
370
    30
100
AcDbHatch
 10
0.0
 20
0.0
 30
0.0
210
0.0
220
0.0
230
1.0
  2
SOLID
 70
     1
 71
     0
 91
        1
 92
        1
 93
        1
 72
     2
 10
-70306.55159521283
 20
3027.435688584459
 40
0.375
 50
0.0
 51
360.0
 73
     1
 97
        0
 75
     0
 76
     1
 98
        0
  0
LWPOLYLINE
  5
3D61
330
431C
100
AcDbEntity
  8
Level 5
  6
Continuous
 62
   252
370
    53
100
AcDbPolyline
 90
        6
 70
   128
 43
0.0
 10
-70227.516532
 20
3076.561919
 10
-70227.516532
 20
3062.625051
 10
-70226.202532
 20
3062.625051
 10
-70228.830532
 20
3059.997051
 10
-70227.516532
 20
3059.997051
 10
-70227.516532
 20
3046.060182
  0
LWPOLYLINE
  5
3D62
330
431C
100
AcDbEntity
  8
Level 5
  6
Continuous
 62
   252
370
    53
100
AcDbPolyline
 90
        6
 70
   128
 43
0.0
 10
-70227.516532
 20
3046.717182
 10
-70227.516532
 20
3032.908211
 10
-70226.202532
 20
3032.908211
 10
-70228.830532
 20
3030.280211
 10
-70227.516532
 20
3030.280211
 10
-70227.516532
 20
3016.47124
  0
POINT
  5
3D63
330
431C
100
AcDbEntity
  8
STRUCTURES TEXT
 62
     2
370
     0
100
AcDbPoint
 10
-70320.840114
 20
3046.113284
 30
0.0
  0
POINT
  5
3D64
330
431C
100
AcDbEntity
  8
STRUCTURES TEXT
 62
     2
370
     0
100
AcDbPoint
 10
-70320.795535
 20
3046.157862
 30
0.0
  0
CIRCLE
  5
3D65
330
431C
100
AcDbEntity
  8
STRUCTURES TEXT
  6
DGN Style 3
 62
     5
370
   100
100
AcDbCircle
 10
-70307.340114
 20
3046.113284
 30
0.0
 40
1.5
  0
LINE
  5
3D66
330
431C
100
AcDbEntity
  8
STRUCTURES TEXT
  6
Continuous
 62
   252
370
   100
100
AcDbLine
 10
-70336.371459
 20
3073.185689
 30
0.0
 11
-70230.011532
 21
3073.185689
 31
0.0
  0
LINE
  5
3D67
330
431C
100
AcDbEntity
  8
STRUCTURES TEXT
  6
Continuous
 62
   252
370
   100
100
AcDbLine
 10
-70305.194544
 20
3019.185689
 30
0.0
 11
-70230.011532
 21
3019.185689
 31
0.0
  0
LINE
  5
3D68
330
431C
100
AcDbEntity
  8
Level 1
  6
Continuous
 62
    92
370
    40
100
AcDbLine
 10
-70327.82723
 20
3064.935689
 30
0.0
 11
-70230.011532
 21
3064.935689
 31
0.0
  0
LINE
  5
3D69
330
431C
100
AcDbEntity
  8
Level 1
  6
Continuous
 62
    92
370
    40
100
AcDbLine
 10
-70320.574268
 20
3052.373189
 30
0.0
 11
-70230.011532
 21
3052.373189
 31
0.0
  0
LINE
  5
3D6A
330
431C
100
AcDbEntity
  8
Level 1
  6
Continuous
 62
    92
370
    40
100
AcDbLine
 10
-70313.321305
 20
3039.810689
 30
0.0
 11
-70230.011532
 21
3039.810689
 31
0.0
  0
LINE
  5
3D6B
330
431C
100
AcDbEntity
  8
Level 1
  6
Continuous
 62
    92
370
    40
100
AcDbLine
 10
-70306.176595
 20
3027.435689
 30
0.0
 11
-70230.011532
 21
3027.435689
 31
0.0
  0
LINE
  5
3D6C
330
431C
100
AcDbEntity
  8
STRUCTURES TEXT
  6
Continuous
 62
   252
370
   100
100
AcDbLine
 10
-70230.011532
 20
3073.185689
 30
0.0
 11
-70227.516532
 21
3073.185689
 31
0.0
  0
LINE
  5
3D6D
330
431C
100
AcDbEntity
  8
STRUCTURES TEXT
  6
Continuous
 62
   252
370
   100
100
AcDbLine
 10
-70230.011532
 20
3019.185689
 30
0.0
 11
-70227.516532
 21
3019.185689
 31
0.0
  0
LINE
  5
3D6E
330
431C
100
AcDbEntity
  8
STRUCTURES TEXT
  6
DGN Style 3
 62
   252
370
    70
100
AcDbLine
 10
-70227.516532
 20
3026.685689
 30
0.0
 11
-70230.011532
 21
3026.685689
 31
0.0
  0
LINE
  5
3D6F
330
431C
100
AcDbEntity
  8
STRUCTURES TEXT
  6
DGN Style 3
 62
   252
370
    70
100
AcDbLine
 10
-70227.516532
 20
3065.685689
 30
0.0
 11
-70230.011532
 21
3065.685689
 31
0.0
  0
LINE
  5
3D70
330
431C
100
AcDbEntity
  8
Level 1
  6
Continuous
 62
    92
370
    40
100
AcDbLine
 10
-70230.011532
 20
3064.935689
 30
0.0
 11
-70227.516532
 21
3064.935689
 31
0.0
  0
LINE
  5
3D71
330
431C
100
AcDbEntity
  8
Level 1
  6
Continuous
 62
    92
370
    40
100
AcDbLine
 10
-70230.011532
 20
3052.373189
 30
0.0
 11
-70227.516532
 21
3052.373189
 31
0.0
  0
LINE
  5
3D72
330
431C
100
AcDbEntity
  8
Level 1
  6
Continuous
 62
    92
370
    40
100
AcDbLine
 10
-70230.011532
 20
3039.810689
 30
0.0
 11
-70227.516532
 21
3039.810689
 31
0.0
  0
LINE
  5
3D73
330
431C
100
AcDbEntity
  8
Level 1
  6
Continuous
 62
    92
370
    40
100
AcDbLine
 10
-70230.011532
 20
3027.435689
 30
0.0
 11
-70227.516532
 21
3027.435689
 31
0.0
  0
POINT
  5
3D74
330
431C
100
AcDbEntity
  8
STRUCTURES TEXT
  6
Continuous
370
     0
100
AcDbPoint
 10
-70265.110897
 20
3022.185689
 30
0.0
  0
LINE
  5
3D75
330
431C
100
AcDbEntity
  8
STRUCTURES TEXT
  6
Continuous
370
     0
100
AcDbLine
 10
-70265.110897
 20
3022.185689
 30
0.0
 11
-70265.110897
 21
3022.211489
 31
0.0
  0
POINT
  5
3D76
330
431C
100
AcDbEntity
  8
STRUCTURES TEXT
  6
Continuous
370
     0
100
AcDbPoint
 10
-70265.110897
 20
3022.185689
 30
0.0
  0
LINE
  5
3D77
330
431C
100
AcDbEntity
  8
STRUCTURES TEXT
  6
Continuous
370
     0
100
AcDbLine
 10
-70305.194544
 20
3019.185689
 30
0.0
 11
-70305.194544
 21
3019.185689
 31
0.0
  0
LINE
  5
3D78
330
431C
100
AcDbEntity
  8
STRUCTURES TEXT
  6
DGN Style 3
 62
     1
370
    53
100
AcDbLine
 10
-70258.369578
 20
3073.185689
 30
0.0
 11
-70258.369578
 21
3019.185689
 31
0.0
  0
LINE
  5
3D79
330
431C
100
AcDbEntity
  8
STRUCTURES TEXT
  6
DGN Style 3
 62
     1
370
    53
100
AcDbLine
 10
-70253.869578
 20
3073.185689
 30
0.0
 11
-70253.869578
 21
3019.185689
 31
0.0
  0
LINE
  5
3D7A
330
431C
100
AcDbEntity
  8
STRUCTURES TEXT
  6
DGN Style 3
 62
     5
370
    53
100
AcDbLine
 10
-70255.369578
 20
3073.185689
 30
0.0
 11
-70255.369578
 21
3019.185689
 31
0.0
  0
LINE
  5
3D7B
330
431C
100
AcDbEntity
  8
STRUCTURES TEXT
  6
DGN Style 3
 62
     5
370
    53
100
AcDbLine
 10
-70256.869578
 20
3073.185689
 30
0.0
 11
-70256.869578
 21
3019.185689
 31
0.0
  0
LINE
  5
3D7C
330
431C
100
AcDbEntity
  8
STRUCTURES TEXT
  6
DGN Style 3
 62
   252
370
   100
100
AcDbLine
 10
-70248.619578
 20
3065.685689
 30
0.0
 11
-70248.619578
 21
3026.685689
 31
0.0
  0
LINE
  5
3D7D
330
431C
100
AcDbEntity
  8
STRUCTURES TEXT
  6
DGN Style 3
 62
   252
370
   100
100
AcDbLine
 10
-70230.011532
 20
3026.685689
 30
0.0
 11
-70248.619578
 21
3026.685689
 31
0.0
  0
LINE
  5
3D7E
330
431C
100
AcDbEntity
  8
STRUCTURES TEXT
  6
DGN Style 3
 62
   252
370
   100
100
AcDbLine
 10
-70230.011532
 20
3065.685689
 30
0.0
 11
-70248.619578
 21
3065.685689
 31
0.0
  0
ARC
  5
3D7F
330
431C
100
AcDbEntity
  8
Level 8
 62
    30
370
    30
100
AcDbCircle
 10
-70328.153401
 20
3067.308295
 30
0.0
 40
1.6875
100
AcDbArc
 50
90.0
 51
210.0
  0
ARC
  5
3D80
330
431C
100
AcDbEntity
  8
Level 8
 62
    30
370
    30
100
AcDbCircle
 10
-70303.688183
 20
3024.933295
 30
0.0
 40
1.6875
100
AcDbArc
 50
210.0
 51
270.0
  0
LINE
  5
3D81
330
431C
100
AcDbEntity
  8
Level 8
 62
    30
370
    30
100
AcDbLine
 10
-70304.500082
 20
3024.464545
 30
0.0
 11
-70328.965299
 21
3066.839545
 31
0.0
  0
ARC
  5
3D82
330
431C
100
AcDbEntity
  8
Level 8
 62
    30
370
    30
100
AcDbCircle
 10
-70303.688183
 20
3024.933295
 30
0.0
 40
0.9375000000000001
100
AcDbArc
 50
210.0
 51
270.0
  0
ARC
  5
3D83
330
431C
100
AcDbEntity
  8
Level 8
 62
    30
370
    30
100
AcDbCircle
 10
-70328.153401
 20
3067.308295
 30
0.0
 40
0.9375
100
AcDbArc
 50
90.0
 51
210.0
  0
LINE
  5
3D84
330
431C
100
AcDbEntity
  8
Level 8
 62
    30
370
    30
100
AcDbLine
 10
-70330.620517
 20
3068.206466
 30
0.0
 11
-70331.076236
 21
3068.995795
 31
0.0
  0
LINE
  5
3D85
330
431C
100
AcDbEntity
  8
Level 8
 62
    30
370
    30
100
AcDbLine
 10
-70305.149601
 20
3024.089545
 30
0.0
 11
-70329.614822
 21
3066.464552
 31
0.0
  0
LINE
  5
3D86
330
431C
100
AcDbEntity
  8
Level 8
 62
    30
370
    30
100
AcDbLine
 10
-70258.369578
 20
3023.995795
 30
0.0
 11
-70303.688183
 21
3023.995795
 31
0.0
  0
LINE
  5
3D87
330
431C
100
AcDbEntity
  8
Level 8
 62
    30
370
    30
100
AcDbLine
 10
-70258.369578
 20
3023.245795
 30
0.0
 11
-70303.688183
 21
3023.245795
 31
0.0
  0
LINE
  5
3D88
330
431C
100
AcDbEntity
  8
Level 8
 62
    30
370
    30
100
AcDbLine
 10
-70258.369578
 20
3068.995795
 30
0.0
 11
-70328.153401
 21
3068.995795
 31
0.0
  0
LINE
  5
3D89
330
431C
100
AcDbEntity
  8
Level 8
 62
    30
370
    30
100
AcDbLine
 10
-70258.369578
 20
3068.245795
 30
0.0
 11
-70328.153401
 21
3068.245795
 31
0.0
  0
HATCH
  5
3D8A
330
431C
100
AcDbEntity
  8
STRUCTURES TEXT
  6
Continuous
 62
     2
370
     0
100
AcDbHatch
 10
0.0
 20
0.0
 30
0.0
210
0.0
220
0.0
230
1.0
  2
SOLID
 70
     1
 71
     0
 91
        1
 92
        1
 93
        1
 72
     2
 10
-70288.89036256023
 20
3022.79681998247
 40
0.375
 50
0.0
 51
360.0
 73
     1
 97
        0
 75
     0
 76
     1
 98
        0
  0
LINE
  5
3D8B
330
431C
100
AcDbEntity
  8
STRUCTURES TEXT
  6
Continuous
 62
     2
370
    40
100
AcDbLine
 10
-70304.105493
 20
3022.549396
 30
0.0
 11
-70335.249926
 21
3076.493137
 31
0.0
  0
LINE
  5
3D8C
330
431C
100
AcDbEntity
  8
STRUCTURES TEXT
  6
Continuous
 62
     2
370
    40
100
AcDbLine
 10
-70298.920105
 20
3022.56804
 30
0.0
 11
-70326.218629
 21
3069.850471
 31
0.0
  0
LINE
  5
3D8D
330
431C
100
AcDbEntity
  8
STRUCTURES TEXT
  6
Continuous
 62
     2
370
    40
100
AcDbLine
 10
-70293.699624
 20
3022.525902
 30
0.0
 11
-70321.035064
 21
3069.872274
 31
0.0
  0
HATCH
  5
3D8F
330
431C
100
AcDbEntity
  8
STRUCTURES TEXT
  6
Continuous
 62
     2
370
     0
100
AcDbHatch
 10
0.0
 20
0.0
 30
0.0
210
0.0
220
0.0
230
1.0
  2
SOLID
 70
     1
 71
     0
 91
        1
 92
        1
 93
        1
 72
     2
 10
-70315.99912418795
 20
3069.810688584458
 40
0.375
 50
0.0
 51
360.0
 73
     1
 97
        0
 75
     0
 76
     1
 98
        0
  0
LINE
  5
3D90
330
431C
100
AcDbEntity
  8
STRUCTURES TEXT
  6
Continuous
 62
     2
370
    53
100
AcDbLine
 10
-70315.959067
 20
3069.708765
 30
0.0
 11
-70288.841101
 21
3022.739071
 31
0.0
  0
LINE
  5
3D91
330
431C
100
AcDbEntity
  8
STRUCTURES TEXT
  6
Continuous
 62
     2
370
    40
100
AcDbLine
 10
-70279.045917
 20
3022.480809
 30
0.0
 11
-70300.515291
 21
3069.781585
 31
0.0
  0
LINE
  5
3D92
330
431C
100
AcDbEntity
  8
STRUCTURES TEXT
  6
Continuous
 62
     2
370
    40
100
AcDbLine
 10
-70274.217066
 20
3022.495242
 30
0.0
 11
-70290.453346
 21
3069.83475
 31
0.0
  0
LINE
  5
3D93
330
431C
100
AcDbEntity
  8
STRUCTURES TEXT
  6
Continuous
 62
     2
370
    40
100
AcDbLine
 10
-70269.682435
 20
3022.502526
 30
0.0
 11
-70280.359866
 21
3069.792208
 31
0.0
  0
LINE
  5
3D94
330
431C
100
AcDbEntity
  8
STRUCTURES TEXT
  6
Continuous
 62
     2
370
     0
100
AcDbLine
 10
-70317.697786
 20
3046.091939
 30
0.0
 11
-70321.986145
 21
3046.091939
 31
0.0
  0
LINE
  5
3D95
330
431C
100
AcDbEntity
  8
STRUCTURES TEXT
  6
DGN Style 7
 62
     1
370
    30
100
AcDbLine
 10
-70256.119578
 20
3015.451226
 30
0.0
 11
-70256.119578
 21
3077.024312
 31
0.0
  0
INSERT
  5
3D96
330
431C
100
AcDbEntity
  8
STRUCTURES TEXT
  6
Continuous
 62
   150
370
    30
100
AcDbBlockReference
  2
AB BARS-TOP PLAN
 10
-70259.604654
 20
3070.163587
 30
0.0
 41
1.5
 42
1.5
 43
1.5
  0
INSERT
  5
3D9A
330
431C
100
AcDbEntity
  8
STRUCTURES TEXT
  6
Continuous
 62
   150
370
    30
100
AcDbBlockReference
  2
AB BARS-TOP PLAN
 10
-70250.55523
 20
3070.163587
 30
0.0
 41
1.5
 42
1.5
 43
1.5
  0
INSERT
  5
3D9E
330
431C
100
AcDbEntity
  8
STRUCTURES TEXT
  6
Continuous
 62
   150
370
    30
100
AcDbBlockReference
  2
AB BARS-TOP PLAN
 10
-70241.550384
 20
3070.163587
 30
0.0
 41
1.5
 42
1.5
 43
1.5
  0
INSERT
  5
3DA2
330
431C
100
AcDbEntity
  8
STRUCTURES TEXT
  6
Continuous
 62
   150
370
    30
100
AcDbBlockReference
  2
AB BARS-TOP PLAN
 10
-70232.456381
 20
3070.163587
 30
0.0
 41
1.5
 42
1.5
 43
1.5
  0
INSERT
  5
3DA6
330
431C
100
AcDbEntity
  8
STRUCTURES TEXT
  6
Continuous
 62
   150
370
    30
100
AcDbBlockReference
  2
AB BARS-TOP PLAN_1
 10
-70259.52107
 20
3022.284608
 30
0.0
 41
1.5
 42
1.5
 43
1.5
 50
180.0
  0
INSERT
  5
3DAA
330
431C
100
AcDbEntity
  8
STRUCTURES TEXT
  6
Continuous
 62
   150
370
    30
100
AcDbBlockReference
  2
AB BARS-TOP PLAN_1
 10
-70250.560802
 20
3022.284608
 30
0.0
 41
1.5
 42
1.5
 43
1.5
 50
180.0
  0
INSERT
  5
3DAE
330
431C
100
AcDbEntity
  8
STRUCTURES TEXT
  6
Continuous
 62
   150
370
    30
100
AcDbBlockReference
  2
AB BARS-TOP PLAN_1
 10
-70241.288486
 20
3022.284608
 30
0.0
 41
1.5
 42
1.5
 43
1.5
 50
180.0
  0
INSERT
  5
3DB2
330
431C
100
AcDbEntity
  8
STRUCTURES TEXT
  6
Continuous
 62
   150
370
    30
100
AcDbBlockReference
  2
AB BARS-TOP PLAN_1
 10
-70232.239061
 20
3022.284608
 30
0.0
 41
1.5
 42
1.5
 43
1.5
 50
180.0
  0
LINE
  5
3D8E
330
431C
100
AcDbEntity
  8
STRUCTURES TEXT
  6
Continuous
 62
     2
370
    40
100
AcDbLine
 10
-70283.318245
 20
3022.544827
 30
0.0
 11
-70310.589364
 21
3069.779791
 31
0.0
  0
LINE
  5
3DBA
330
431C
100
AcDbEntity
  8
Level 3
  6
Continuous
 62
     2
370
    30
100
AcDbLine
 10
-70344.754073
 20
3072.301012
 30
0.0
 11
-70338.084036
 21
3076.151959
 31
0.0
  0
LINE
  5
3DBB
330
431C
100
AcDbEntity
  8
Level 3
  6
Continuous
 62
     2
370
    30
100
AcDbLine
 10
-70338.084036
 20
3076.151959
 30
0.0
 11
-70335.822969
 21
3077.457387
 31
0.0
  0
LINE
  5
3DBC
330
431C
100
AcDbEntity
  8
Level 3
  6
Continuous
 62
     2
370
    30
100
AcDbLine
 10
-70334.307425
 20
3078.332387
 30
0.0
 11
-70335.822969
 21
3077.457387
 31
0.0
  0
LINE
  5
3DBE
330
431C
100
AcDbEntity
  8
Level 3
  6
Continuous
 62
     2
370
    30
100
AcDbLine
 10
-70336.808959
 20
3073.943461
 30
0.0
 11
-70338.521536
 21
3076.909732
 31
0.0
  0
LINE
  5
3DBF
330
431C
100
AcDbEntity
  8
Level 3
  6
Continuous
 62
     2
370
    30
100
AcDbLine
 10
-70334.547892
 20
3075.248888
 30
0.0
 11
-70336.260469
 21
3078.215159
 31
0.0
  0
LINE
  5
3DC1
330
431C
100
AcDbEntity
  8
Level 3
  6
Continuous
 62
     2
370
    30
100
AcDbLine
 10
-70335.822969
 20
3077.457387
 30
0.0
 11
-70320.222262
 21
3086.464459
 31
0.0
  0
LINE
  5
3DC4
330
431C
100
AcDbEntity
  8
Level 3
  6
Continuous
 62
     2
370
    30
100
AcDbLine
 10
-70311.567381
 20
3071.473765
 30
0.0
 11
-70320.659762
 21
3087.222232
 31
0.0
  0
LINE
  5
3DC6
330
431C
100
AcDbEntity
  8
Level 3
  6
Continuous
 62
     2
370
    30
100
AcDbLine
 10
-70310.605723
 20
3086.473511
 30
0.0
 11
-70260.610897
 21
3086.473511
 31
0.0
  0
SOLID
  5
3DC7
330
431C
100
AcDbEntity
  8
Level 3
  6
Continuous
 62
     2
370
    30
100
AcDbTrace
 10
-70308.855723
 20
3086.036011
 30
0.0
 11
-70310.605723
 21
3086.473511
 31
0.0
 12
-70308.855723
 22
3086.911011
 32
0.0
 13
-70308.855723
 23
3086.911011
 33
0.0
  0
LINE
  5
3DC8
330
431C
100
AcDbEntity
  8
Level 3
  6
Continuous
 62
     2
370
    30
100
AcDbLine
 10
-70310.605723
 20
3071.057445
 30
0.0
 11
-70310.605723
 21
3087.348511
 31
0.0
  0
LINE
  5
3DC9
330
431C
100
AcDbEntity
  8
Level 3
  6
Continuous
 62
     2
370
    30
100
AcDbLine
 10
-70260.610897
 20
3071.060689
 30
0.0
 11
-70260.610897
 21
3087.348511
 31
0.0
  0
LINE
  5
3DCB
330
431C
100
AcDbEntity
  8
Level 3
  6
Continuous
 62
     2
370
    30
100
AcDbLine
 10
-70260.610897
 20
3086.473511
 30
0.0
 11
-70227.516532
 21
3086.473511
 31
0.0
  0
SOLID
  5
3DCC
330
431C
100
AcDbEntity
  8
Level 3
  6
Continuous
 62
     2
370
    30
100
AcDbTrace
 10
-70258.860897
 20
3086.036011
 30
0.0
 11
-70260.610897
 21
3086.473511
 31
0.0
 12
-70258.860897
 22
3086.911011
 32
0.0
 13
-70258.860897
 23
3086.911011
 33
0.0
  0
SOLID
  5
3DCD
330
431C
100
AcDbEntity
  8
Level 3
  6
Continuous
 62
     2
370
    30
100
AcDbTrace
 10
70229.266532
 20
3086.911011
 30
0.0
 11
70227.516532
 21
3086.473511
 31
0.0
 12
70229.266532
 22
3086.036011
 32
0.0
 13
70229.266532
 23
3086.036011
 33
0.0
210
0.0
220
0.0
230
-1.0
  0
LINE
  5
3DD3
330
431C
100
AcDbEntity
  8
Level 3
  6
Continuous
 62
     2
370
    30
100
AcDbLine
 10
-70325.137076
 20
3003.204494
 30
0.0
 11
-70256.119578
 21
3003.204494
 31
0.0
  0
LINE
  5
3DD6
330
431C
100
AcDbEntity
  8
Level 3
  6
Continuous
 62
     2
370
    30
100
AcDbLine
 10
-70256.119578
 20
3014.594327
 30
0.0
 11
-70256.119578
 21
3002.329494
 31
0.0
  0
LINE
  5
3DD8
330
431C
100
AcDbEntity
  8
Level 3
  6
Continuous
 62
     2
370
    30
100
AcDbLine
 10
-70256.119578
 20
3003.204494
 30
0.0
 11
-70248.619578
 21
3003.204494
 31
0.0
  0
LINE
  5
3DDB
330
431C
100
AcDbEntity
  8
Level 3
  6
Continuous
 62
     2
370
    30
100
AcDbLine
 10
-70248.619578
 20
3025.810689
 30
0.0
 11
-70248.619578
 21
3002.329494
 31
0.0
  0
LINE
  5
3DDD
330
431C
100
AcDbEntity
  8
Level 3
  6
Continuous
 62
     2
370
    30
100
AcDbLine
 10
-70283.318245
 20
3010.890865
 30
0.0
 11
-70260.610897
 21
3010.890865
 31
0.0
  0
SOLID
  5
3DDE
330
431C
100
AcDbEntity
  8
Level 3
  6
Continuous
 62
     2
370
    30
100
AcDbTrace
 10
-70281.568245
 20
3010.453365
 30
0.0
 11
-70283.318245
 21
3010.890865
 31
0.0
 12
-70281.568245
 22
3011.328365
 32
0.0
 13
-70281.568245
 23
3011.328365
 33
0.0
  0
SOLID
  5
3DDF
330
431C
100
AcDbEntity
  8
Level 3
  6
Continuous
 62
     2
370
    30
100
AcDbTrace
 10
70262.360897
 20
3011.328365
 30
0.0
 11
70260.610897
 21
3010.890865
 31
0.0
 12
70262.360897
 22
3010.453365
 32
0.0
 13
70262.360897
 23
3010.453365
 33
0.0
210
0.0
220
0.0
230
-1.0
  0
LINE
  5
3DE0
330
431C
100
AcDbEntity
  8
Level 3
  6
Continuous
 62
     2
370
    30
100
AcDbLine
 10
-70283.318245
 20
3021.669827
 30
0.0
 11
-70283.318245
 21
3010.015865
 31
0.0
  0
LINE
  5
3DE1
330
431C
100
AcDbEntity
  8
Level 3
  6
Continuous
 62
     2
370
    30
100
AcDbLine
 10
-70260.610897
 20
3021.310689
 30
0.0
 11
-70260.610897
 21
3010.015865
 31
0.0
  0
LINE
  5
3E18
330
431C
100
AcDbEntity
  8
Level 3
  6
Continuous
 62
     2
370
    30
100
AcDbLine
 10
-70339.818331
 20
3075.655845
 30
0.0
 11
-70338.084036
 21
3076.151959
 31
0.0
  0
LINE
  5
3E19
330
431C
100
AcDbEntity
  8
Level 3
  6
Continuous
 62
     2
370
    30
100
AcDbLine
 10
-70338.084036
 20
3076.151959
 30
0.0
 11
-70339.380831
 21
3074.898073
 31
0.0
  0
LINE
  5
3E1A
330
431C
100
AcDbEntity
  8
Level 3
  6
Continuous
 62
     2
370
    30
100
AcDbLine
 10
-70339.380831
 20
3074.898073
 30
0.0
 11
-70339.818331
 21
3075.655845
 31
0.0
  0
LINE
  5
3E1B
330
431C
100
AcDbEntity
  8
Level 3
  6
Continuous
 62
     2
370
    30
100
AcDbLine
 10
-70334.088675
 20
3077.953501
 30
0.0
 11
-70335.822969
 21
3077.457387
 31
0.0
  0
LINE
  5
3E1C
330
431C
100
AcDbEntity
  8
Level 3
  6
Continuous
 62
     2
370
    30
100
AcDbLine
 10
-70335.822969
 20
3077.457387
 30
0.0
 11
-70334.526175
 21
3078.711273
 31
0.0
  0
LINE
  5
3E1D
330
431C
100
AcDbEntity
  8
Level 3
  6
Continuous
 62
     2
370
    30
100
AcDbLine
 10
-70334.526175
 20
3078.711273
 30
0.0
 11
-70334.088675
 21
3077.953501
 31
0.0
  0
LINE
  5
3E1E
330
431C
100
AcDbEntity
  8
Level 3
  6
Continuous
 62
     2
370
    30
100
AcDbLine
 10
-70321.956557
 20
3085.968345
 30
0.0
 11
-70320.222262
 21
3086.464459
 31
0.0
  0
LINE
  5
3E1F
330
431C
100
AcDbEntity
  8
Level 3
  6
Continuous
 62
     2
370
    30
100
AcDbLine
 10
-70320.222262
 20
3086.464459
 30
0.0
 11
-70321.519057
 21
3085.210573
 31
0.0
  0
LINE
  5
3E20
330
431C
100
AcDbEntity
  8
Level 3
  6
Continuous
 62
     2
370
    30
100
AcDbLine
 10
-70321.519057
 20
3085.210573
 30
0.0
 11
-70321.956557
 21
3085.968345
 31
0.0
  0
MTEXT
  5
3E90
330
431C
100
AcDbEntity
  8
STRUCTURES TEXT
 62
     1
370
    30
100
AcDbMText
 10
-70285.051886
 20
3087.625047
 30
0.0
 40
1.3125
 41
0.0
 71
     8
 72
     1
  1
\T1.105;5 EQUAL SPA - 6{\T1.0;\W0.7x;\H0.7x;\S3#4;}" MAX
  7
Style-straight_squash
 73
     2
 44
0.722892
  0
MTEXT
  5
3E91
330
431C
100
AcDbEntity
  8
STRUCTURES TEXT
370
    30
100
AcDbMText
 10
-70285.051886
 20
3082.747158
 30
0.0
 40
1.3125
 41
0.0
 71
     8
 72
     1
  1
\T1.108;NO. 4 SS BARS
  7
Style-straight_squash
 73
     2
 44
0.722892
  0
MTEXT
  5
3E92
330
431C
100
AcDbEntity
  8
STRUCTURES TEXT
370
    30
100
AcDbMText
 10
-70244.254994
 20
3082.747158
 30
0.0
 40
1.3125
 41
0.0
 71
     8
 72
     1
  1
\T1.105;AB & BS BARS
  7
Style-straight_squash
 73
     2
 44
0.722892
  0
MTEXT
  5
3E94
330
431C
100
AcDbEntity
  8
STRUCTURES TEXT
370
    30
100
AcDbMText
 10
-70237.036703
 20
3087.740014
 30
0.0
 40
1.3125
 41
0.0
 71
     8
 72
     1
  1
\T1.110;BARS SPA. PER INDIVIDUAL BEAM SHEET
  7
Style-straight_squash
 73
     2
 44
0.722892
  0
MTEXT
  5
3E95
330
431C
100
AcDbEntity
  8
STRUCTURES TEXT
370
    30
100
AcDbMText
 10
-70271.797823
 20
3011.631803
 30
0.0
 40
1.3125
 41
0.0
 71
     8
 72
     1
  1
\T1.106;5 EQUAL SPA.
  7
Style-straight_squash
 73
     2
 44
0.722892
  0
MTEXT
  5
3E96
330
431C
100
AcDbEntity
  8
STRUCTURES TEXT
370
    30
100
AcDbMText
 10
-70271.797823
 20
3008.084248
 30
0.0
 40
1.3125
 41
0.0
 71
     8
 72
     1
  1
\T1.117;3" MIN
  7
Style-straight_squash
 73
     2
 44
0.722892
  0
MTEXT
  5
3E97
330
431C
100
AcDbEntity
  8
STRUCTURES TEXT
370
    30
100
AcDbMText
 10
-70252.08918
 20
3003.846889
 30
0.0
 40
1.3125
 41
0.0
 71
     8
 72
     1
  1
\T1.097;5"
  7
Style-straight_squash
 73
     2
 44
0.722892
  0
SOLID
  5
3E98
330
431C
100
AcDbEntity
  8
STRUCTURES TEXT
 62
     2
370
    30
100
AcDbTrace
 10
-70248.619578
 20
3003.204494
 30
0.0
 11
-70250.369578
 21
3002.766994
 31
0.0
 12
-70250.369578
 22
3003.641994
 32
0.0
 13
-70250.369578
 23
3003.641994
 33
0.0
  0
SOLID
  5
3E99
330
431C
100
AcDbEntity
  8
STRUCTURES TEXT
 62
     2
370
    30
100
AcDbTrace
 10
-70256.119578
 20
3003.204494
 30
0.0
 11
-70254.369578
 21
3002.766994
 31
0.0
 12
-70254.369578
 22
3003.641994
 32
0.0
 13
-70254.369578
 23
3003.641994
 33
0.0
  0
SOLID
  5
3E9A
330
431C
100
AcDbEntity
  8
STRUCTURES TEXT
 62
     2
370
    30
100
AcDbTrace
 10
70305.194544
 20
3003.204494
 30
0.0
 11
70303.444544
 21
3003.641994
 31
0.0
 12
70303.444544
 22
3002.766994
 32
0.0
 13
70303.444544
 23
3002.766994
 33
0.0
210
0.0
220
0.0
230
-1.0
  0
MTEXT
  5
3E9C
330
431C
100
AcDbEntity
  8
STRUCTURES TEXT
 62
     1
370
    30
100
AcDbMText
 10
-70280.891172
 20
3003.846889
 30
0.0
 40
1.3125
 41
0.0
 71
     8
 72
     1
  1
\T1.110;1'-6" MIN/3'-0" MAX
  7
Style-straight_squash
 73
     2
 44
0.914286
  0
MTEXT
  5
3E9E
330
431C
100
AcDbEntity
  8
STRUCTURES TEXT
 62
     1
370
    30
100
AcDbMText
 10
-70317.680639
 20
3000.229988
 30
0.0
 40
1.3125
 41
0.0
 71
     8
 72
     1
  1
\T1.109;SKEW > = 20^ 
  7
Style-straight_squash
 73
     2
 44
0.722892
  0
MTEXT
  5
3E9F
330
431C
100
AcDbEntity
  8
STRUCTURES TEXT
 62
     1
370
    30
100
AcDbMText
 10
-70280.956867
 20
3000.229988
 30
0.0
 40
1.3125
 41
0.0
 71
     8
 72
     1
  1
\T1.107;2'-6" MIN/3'-6" MAX
  7
Style-straight_squash
 73
     2
 44
0.722892
  0
MTEXT
  5
3E9B
330
431C
100
AcDbEntity
  8
STRUCTURES TEXT
370
    30
100
AcDbMText
 10
-70318.764615
 20
3003.846889
 30
0.0
 40
1.3125
 41
0.0
 71
     8
 72
     1
  1
\T1.105;SKEW < 20^ 
  7
Style-straight_squash
 73
     2
 44
0.722892
  0
MTEXT
  5
3EA0
330
431C
100
AcDbEntity
  8
STRUCTURES TEXT
 62
     1
370
    30
100
AcDbMText
 10
-70250.909398
 20
3078.999738
 30
0.0
 40
1.3125
 41
0.0
 71
     4
 72
     1
  1
\T1.102;\{ 3"~ POST-TEN SLEEVE
  7
Style-straight_squash
 73
     2
 44
0.722892
  0
MTEXT
  5
3EA1
102
{ACAD_XDICTIONARY
360
437C
102
}
330
431C
100
AcDbEntity
  8
STRUCTURES TEXT
 62
     1
370
    30
100
AcDbMText
 10
-70220.34184
 20
3046.176604
 30
0.0
 40
1.3125
 41
0.0
 71
     4
 72
     1
  1
\T1.105;EDGE OF SQUARE-ENDED\PBEAM VOID
  7
Style-straight_squash
 73
     2
 44
0.914286
  0
LEADER
  5
3EA5
330
431C
100
AcDbEntity
  8
Level 3
  6
Continuous
 62
     2
370
    30
100
AcDbLeader
  3
Tim
 74
     0
 76
     3
 10
-70256.066493
 20
3075.074434
 30
0.0
 10
-70253.701456
 20
3078.884771
 30
0.0
 10
-70251.664896
 20
3078.884771
 30
0.0
1001
ACAD
1000
DSTYLE
1002
{
1070
   140
1040
1.75
1070
   371
1070
    -2
1070
   147
1040
0.0
1070
   176
1070
     0
1070
    41
1040
1.75
1002
}
  0
MTEXT
  5
3EA7
330
431C
100
AcDbEntity
  8
STRUCTURES TEXT
 62
     1
370
    30
100
AcDbMText
 10
-70328.146314
 20
3082.227689
 30
0.0
 40
1.3125
 41
0.0
 71
     8
 72
     1
  1
\T1.110;4 SPA. @ 3"
  7
Style-straight_squash
 11
0.8660254037840935
 21
0.5000000000005977
 31
0.0
 73
     2
 44
0.722892
  0
MTEXT
  5
3EA8
330
431C
100
AcDbEntity
  8
STRUCTURES TEXT
 62
     1
370
    30
100
AcDbMText
 10
-70342.73791
 20
3073.679471
 30
0.0
 40
1.3125
 41
0.0
 71
     8
 72
     1
  1
\T1.117;1{\T1.0;\W0.7x;\H0.7x;\S1#2;}"
  7
Style-straight_squash
 11
0.8660254037845865
 21
0.499999999999744
 31
0.0
 73
     2
 44
0.722892
  0
MTEXT
  5
3EA9
330
431C
100
AcDbEntity
  8
STRUCTURES TEXT
 62
     1
370
    30
100
AcDbMText
 10
-70342.73791
 20
3073.679471
 30
0.0
 40
1.3125
 41
0.0
 71
     8
 72
     1
  1
\T1.117;1{\T1.0;\W0.7x;\H0.7x;\S1#2;}"
  7
Style-straight_squash
 11
0.8660254037845865
 21
0.499999999999744
 31
0.0
 73
     2
 44
0.722892
  0
MTEXT
  5
3EAB
330
431C
100
AcDbEntity
  8
STRUCTURES TEXT
 62
     1
370
    30
100
AcDbMText
 10
-70342.55094
 20
3072.939331
 30
0.0
 40
1.3125
 41
0.0
 71
     2
 72
     1
  1
\T1.098;CLR
  7
Style-straight_squash
 11
0.8660254037845865
 21
0.499999999999744
 31
0.0
 73
     2
 44
0.722892
  0
MTEXT
  5
3EAD
102
{ACAD_XDICTIONARY
360
437E
102
}
330
431C
100
AcDbEntity
  8
STRUCTURES TEXT
 62
     1
370
    30
100
AcDbMText
 10
-70327.835452
 20
3081.275126
 30
0.0
 40
1.3125
 41
0.0
 71
     2
 72
     1
  1
\T1.108;NO. 4 SS\PBARS
  7
Style-straight_squash
 11
0.8660254037840935
 21
0.5000000000005977
 31
0.0
 73
     2
 44
0.914286
  0
MTEXT
  5
3EB5
330
431C
100
AcDbEntity
  8
STRUCTURES TEXT
 62
     1
370
    30
100
AcDbMText
 10
-70232.873253
 20
3006.23561
 30
0.0
 40
1.3125
 41
0.0
 71
     1
 72
     1
  1
\T1.101;ET BARS
  7
Style-straight_squash
 73
     2
 44
0.722892
  0
MTEXT
  5
3EB6
330
431C
100
AcDbEntity
  8
STRUCTURES TEXT
 62
     1
370
    30
100
AcDbMText
 10
-70218.551638
 20
3010.66097
 30
0.0
 40
1.3125
 41
0.0
 71
     8
 72
     1
  1
\T1.102;LR BARS
  7
Style-straight_squash
 73
     2
 44
0.722892
  0
LWPOLYLINE
  5
3EB7
330
431C
100
AcDbEntity
  8
Level 3
  6
Continuous
 62
     2
370
    30
100
AcDbPolyline
 90
        3
 70
   128
 43
0.0
 10
-70230.011532
 20
3064.935689
 10
-70230.011532
 20
3011.770454
 10
-70223.741581
 20
3011.770454
  0
SOLID
  5
3EB8
330
431C
100
AcDbEntity
  8
Level 3
  6
Continuous
 62
     2
370
    30
100
AcDbTrace
 10
70230.449032
 20
3063.185689
 30
0.0
 11
70230.011532
 21
3064.935689
 31
0.0
 12
70229.574032
 22
3063.185689
 32
0.0
 13
70229.574032
 23
3063.185689
 33
0.0
210
0.0
220
0.0
230
-1.0
  0
LWPOLYLINE
  5
3EB9
330
431C
100
AcDbEntity
  8
Level 3
  6
Continuous
 62
     2
370
    30
100
AcDbPolyline
 90
        3
 70
   128
 43
0.0
 10
-70240.444656
 20
3058.479938
 10
-70240.444656
 20
3005.562231
 10
-70233.792989
 20
3005.562231
  0
SOLID
  5
3EBA
330
431C
100
AcDbEntity
  8
Level 3
  6
Continuous
 62
     2
370
    30
100
AcDbTrace
 10
70240.882156
 20
3056.729938
 30
0.0
 11
70240.444656
 21
3058.479938
 31
0.0
 12
70240.007156
 22
3056.729938
 32
0.0
 13
70240.007156
 23
3056.729938
 33
0.0
210
0.0
220
0.0
230
-1.0
  0
SOLID
  5
3EBB
330
431C
100
AcDbEntity
  8
Level 3
  6
Continuous
 62
     2
370
    30
100
AcDbTrace
 10
70230.449032
 20
3050.406749
 30
0.0
 11
70230.011532
 21
3052.156749
 31
0.0
 12
70229.574032
 22
3050.406749
 32
0.0
 13
70229.574032
 23
3050.406749
 33
0.0
210
0.0
220
0.0
230
-1.0
  0
SOLID
  5
3EBC
330
431C
100
AcDbEntity
  8
Level 3
  6
Continuous
 62
     2
370
    30
100
AcDbTrace
 10
70230.449032
 20
3038.060689
 30
0.0
 11
70230.011532
 21
3039.810689
 31
0.0
 12
70229.574032
 22
3038.060689
 32
0.0
 13
70229.574032
 23
3038.060689
 33
0.0
210
0.0
220
0.0
230
-1.0
  0
SOLID
  5
3EBD
330
431C
100
AcDbEntity
  8
Level 3
  6
Continuous
 62
     2
370
    30
100
AcDbTrace
 10
70230.449032
 20
3025.573858
 30
0.0
 11
70230.011532
 21
3027.323858
 31
0.0
 12
70229.574032
 22
3025.573858
 32
0.0
 13
70229.574032
 23
3025.573858
 33
0.0
210
0.0
220
0.0
230
-1.0
  0
SOLID
  5
3EBE
330
431C
100
AcDbEntity
  8
Level 3
  6
Continuous
 62
     2
370
    30
100
AcDbTrace
 10
70240.882156
 20
3044.297069
 30
0.0
 11
70240.444656
 21
3046.047069
 31
0.0
 12
70240.007156
 22
3044.297069
 32
0.0
 13
70240.007156
 23
3044.297069
 33
0.0
210
0.0
220
0.0
230
-1.0
  0
SOLID
  5
3EBF
330
431C
100
AcDbEntity
  8
Level 3
  6
Continuous
 62
     2
370
    30
100
AcDbTrace
 10
70240.882156
 20
3031.683538
 30
0.0
 11
70240.444656
 21
3033.433538
 31
0.0
 12
70240.007156
 22
3031.683538
 32
0.0
 13
70240.007156
 23
3031.683538
 33
0.0
210
0.0
220
0.0
230
-1.0
  0
SOLID
  5
3EC2
330
431C
100
AcDbEntity
  8
Level 3
  6
Continuous
 62
     2
370
    30
100
AcDbTrace
 10
70247.113136
 20
3054.515368
 30
0.0
 11
70248.574472
 21
3055.572914
 31
0.0
 12
70246.787389
 22
3055.327472
 32
0.0
 13
70246.787389
 23
3055.327472
 33
0.0
210
0.0
220
0.0
230
-1.0
  0
LWPOLYLINE
  5
3EC1
330
431C
100
AcDbEntity
  8
Level 3
  6
Continuous
 62
     2
370
    30
100
AcDbPolyline
 90
        2
 70
   128
 43
0.0
 10
-70248.574472
 20
3055.572914
 10
-70241.622512
 20
3052.784384
  0
LWPOLYLINE
  5
3EC3
330
431C
100
AcDbEntity
  8
Level 3
  6
Continuous
 62
     2
370
    30
100
AcDbPolyline
 90
        2
 70
   128
 43
0.0
 10
-70239.584308
 20
3051.966831
 10
-70230.956702
 20
3048.506176
  0
LWPOLYLINE
  5
3EC4
330
431C
100
AcDbEntity
  8
Level 3
  6
Continuous
 62
     2
370
    30
100
AcDbPolyline
 90
        3
 70
   128
 43
0.0
 10
-70229.054379
 20
3047.743127
 10
-70224.989795
 20
3046.112765
 10
-70221.179458
 20
3046.112765
  0
LINE
  5
3EB2
330
431C
100
AcDbEntity
  8
Level 3
  6
Continuous
 62
     2
370
    30
100
AcDbLine
 10
-70305.194544
 20
3007.50163
 30
0.0
 11
-70305.194544
 21
3002.329494
 31
0.0
  0
LINE
  5
3ED0
330
431C
100
AcDbEntity
  8
Level 3
  6
Continuous
 62
     2
370
    30
100
AcDbLine
 10
-70307.367344
 20
3010.846611
 30
0.0
 11
-70320.783002
 21
3010.846611
 31
0.0
  0
SOLID
  5
3ED1
330
431C
100
AcDbEntity
  8
Level 3
  6
Continuous
 62
     2
370
    30
100
AcDbTrace
 10
70309.117344
 20
3011.284111
 30
0.0
 11
70307.367344
 21
3010.846611
 31
0.0
 12
70309.117344
 22
3010.409111
 32
0.0
 13
70309.117344
 23
3010.409111
 33
0.0
210
0.0
220
0.0
230
-1.0
  0
SOLID
  5
3ED2
330
431C
100
AcDbEntity
  8
Level 3
  6
Continuous
 62
     2
370
    30
100
AcDbTrace
 10
-70319.033002
 20
3010.409111
 30
0.0
 11
-70320.783002
 21
3010.846611
 31
0.0
 12
-70319.033002
 22
3011.284111
 32
0.0
 13
-70319.033002
 23
3011.284111
 33
0.0
  0
LINE
  5
3ED3
330
431C
100
AcDbEntity
  8
Level 3
  6
DGN Style 7
 62
     2
370
    30
100
AcDbLine
 10
-70307.367344
 20
3045.324088
 30
0.0
 11
-70307.367344
 21
3009.971611
 31
0.0
  0
LINE
  5
3ED4
330
431C
100
AcDbEntity
  8
Level 3
  6
Continuous
 62
     2
370
    30
100
AcDbLine
 10
-70320.783002
 20
3045.310689
 30
0.0
 11
-70320.783002
 21
3009.971611
 31
0.0
  0
MTEXT
  5
3ED5
330
431C
100
AcDbEntity
  8
STRUCTURES TEXT
 62
     1
370
    30
100
AcDbMText
 10
-70313.842929
 20
3011.625873
 30
0.0
 40
1.3125
 41
0.0
 71
     8
 72
     1
  1
\T1.096;9"
  7
Style-straight_squash
 73
     2
 44
0.722892
  0
MTEXT
  5
3ED6
330
431C
100
AcDbEntity
  8
STRUCTURES TEXT
 62
     1
370
    30
100
AcDbMText
 10
-70297.386211
 20
3011.625873
 30
0.0
 40
1.3125
 41
0.0
 71
     8
 72
     1
  1
\T1.110;\{ BEARING
  7
Style-straight_squash
 73
     2
 44
0.722892
  0
LEADER
  5
3ED7
330
431C
100
AcDbEntity
  8
Level 3
  6
Continuous
 62
     2
370
    30
100
AcDbLeader
  3
Tim
 74
     0
 76
     2
 10
-70307.043447
 20
3015.281056
 30
0.0
 10
-70303.397348
 20
3012.817476
 30
0.0
1001
ACAD
1000
DSTYLE
1002
{
1070
   140
1040
1.75
1070
   371
1070
    -2
1070
   147
1040
0.0
1070
   176
1070
     0
1070
    41
1040
1.75
1002
}
  0
MTEXT
  5
3ED8
330
431C
100
AcDbEntity
  8
STRUCTURES TEXT
 62
     1
370
    30
100
AcDbMText
 10
-70298.544094
 20
3078.693616
 30
0.0
 40
1.3125
 41
0.0
 71
     1
 72
     1
  1
\T1.103;EB BAR
  7
Style-straight_squash
 73
     2
 44
0.722892
  0
LEADER
  5
3ED9
330
431C
100
AcDbEntity
  8
Level 3
  6
Continuous
 62
     2
370
    30
100
AcDbLeader
  3
Tim
 74
     0
 76
     3
 10
-70298.248465
 20
3069.134924
 30
0.0
 10
-70301.993107
 20
3078.102356
 30
0.0
 10
-70299.726613
 20
3078.102356
 30
0.0
1001
ACAD
1000
DSTYLE
1002
{
1070
   140
1040
1.75
1070
   371
1070
    -2
1070
   147
1040
0.0
1070
   176
1070
     0
1070
    41
1040
1.75
1002
}
  0
MTEXT
  5
399C
330
431C
100
AcDbEntity
  8
STRUCTURES TEXT
  6
Continuous
370
    30
100
AcDbMText
 10
-70267.694949
 20
3132.959323
 30
0.0
 40
1.375
 41
0.0
 71
     8
 72
     1
  1
\T1.210;1'-0{\T1.0;\W0.7x;\H0.7x;\S3#4;}"
  7
Style-straight_squash
 11
2.679489658502661E-8
 21
0.9999999999999997
 31
0.0
 73
     2
 44
0.722892
  0
MTEXT
  5
399D
330
431C
100
AcDbEntity
  8
STRUCTURES TEXT
  6
Continuous
370
    30
100
AcDbMText
 10
-70275.84817
 20
3132.959323
 30
0.0
 40
1.375
 41
0.0
 71
     8
 72
     1
  1
\T1.209;1'-4{\T1.0;\W0.7x;\H0.7x;\S3#4;}"
  7
Style-straight_squash
 11
2.679489658502661E-8
 21
0.9999999999999997
 31
0.0
 73
     2
 44
0.722892
  0
MTEXT
  5
399E
330
431C
100
AcDbEntity
  8
STRUCTURES TEXT
  6
Continuous
370
    30
100
AcDbMText
 10
-70283.903159
 20
3132.959323
 30
0.0
 40
1.375
 41
0.0
 71
     8
 72
     1
  1
\T1.224;1'-10{\T1.0;\W0.7x;\H0.7x;\S3#4;}"
  7
Style-straight_squash
 11
2.679489658502661E-8
 21
0.9999999999999997
 31
0.0
 73
     2
 44
0.722892
  0
MTEXT
  5
399F
330
431C
100
AcDbEntity
  8
STRUCTURES TEXT
  6
Continuous
370
    30
100
AcDbMText
 10
-70292.154611
 20
3132.959323
 30
0.0
 40
1.375
 41
0.0
 71
     8
 72
     1
  1
\T1.191;2'-4{\T1.0;\W0.7x;\H0.7x;\S3#4;}"
  7
Style-straight_squash
 11
2.679489658502661E-8
 21
0.9999999999999997
 31
0.0
 73
     2
 44
0.722892
  0
MTEXT
  5
39A0
330
431C
100
AcDbEntity
  8
STRUCTURES TEXT
  6
Continuous
370
    30
100
AcDbMText
 10
-70300.504294
 20
3132.959323
 30
0.0
 40
1.375
 41
0.0
 71
     8
 72
     1
  1
\T1.206;2'-10{\T1.0;\W0.7x;\H0.7x;\S3#4;}"
  7
Style-straight_squash
 11
2.679489658502661E-8
 21
0.9999999999999997
 31
0.0
 73
     2
 44
0.722892
  0
MTEXT
  5
39A1
330
431C
100
AcDbEntity
  8
STRUCTURES TEXT
  6
Continuous
370
    30
100
AcDbMText
 10
-70307.969894
 20
3132.959323
 30
0.0
 40
1.375
 41
0.0
 71
     8
 72
     1
  1
\T1.210;3'-1{\T1.0;\W0.7x;\H0.7x;\S3#4;}"
  7
Style-straight_squash
 11
2.679489658502661E-8
 21
0.9999999999999997
 31
0.0
 73
     2
 44
0.722892
  0
LINE
  5
3EDC
330
431C
100
AcDbEntity
  8
STRUCTURES TEXT
100
AcDbLine
 10
-70238.309553
 20
3131.225362
 30
0.0
 11
-70218.929387
 21
3131.225362
 31
0.0
  0
LINE
  5
3EDD
330
431C
100
AcDbEntity
  8
STRUCTURES TEXT
100
AcDbLine
 10
-70122.061406
 20
3127.267209
 30
0.0
 11
-70102.68124
 21
3127.267209
 31
0.0
  0
LINE
  5
3EE4
330
431C
100
AcDbEntity
  8
STRUCTURES TEXT
370
    53
100
AcDbLine
 10
-70005.079659
 20
3160.810225
 30
0.0
 11
-69991.765376
 21
3160.810225
 31
0.0
  0
LINE
  5
3EE5
330
431C
100
AcDbEntity
  8
STRUCTURES TEXT
370
    53
100
AcDbLine
 10
-70004.378907
 20
3160.459849
 30
0.0
 11
-69992.320137
 21
3160.459849
 31
0.0
  0
LINE
  5
3EE6
330
431C
100
AcDbEntity
  8
STRUCTURES TEXT
370
    53
100
AcDbLine
 10
-70000.724292
 20
3096.105046
 30
0.0
 11
-69987.19589
 21
3096.105046
 31
0.0
  0
LINE
  5
3EE7
330
431C
100
AcDbEntity
  8
STRUCTURES TEXT
370
    53
100
AcDbLine
 10
-70000.101402
 20
3095.851997
 30
0.0
 11
-69987.546266
 21
3095.851997
 31
0.0
  0
LINE
  5
3EE8
330
431C
100
AcDbEntity
  8
STRUCTURES TEXT
370
    53
100
AcDbLine
 10
-70011.538986
 20
3037.667257
 30
0.0
 11
-69982.944421
 21
3037.667257
 31
0.0
  0
LINE
  5
3EE9
330
431C
100
AcDbEntity
  8
STRUCTURES TEXT
370
    53
100
AcDbLine
 10
-69983.547846
 20
3037.355812
 30
0.0
 11
-70010.916096
 21
3037.355812
 31
0.0
  0
TEXT
  5
3CAE
330
431C
100
AcDbEntity
  8
Level 3
  6
Continuous
 62
     1
370
    30
100
AcDbText
 10
-70113.533972
 20
3096.059107
 30
0.0
 40
1.3125
  1
2'-10"
  7
Style-straight_squash
 72
     1
 11
-70110.766539
 21
3096.715357
 31
0.0
100
AcDbText
 73
     2
  0
MTEXT
  5
379D
102
{ACAD_XDICTIONARY
360
4380
102
}
330
431C
100
AcDbEntity
  8
STRUCTURES TEXT
  6
Continuous
370
    30
100
AcDbMText
 10
-70041.348391
 20
3211.6154
 30
0.0
 40
1.32
 41
0.0
 71
     7
 72
     1
  3
\Fstraight_squash.shx;{\T1.0;\W0.7x;\H0.7x;\S1#2;}" ~ STRAND LIFTING LOOPS EMBEDDED\PFULL DEPTH OF BEAM MINUS COVER OR\PA \FAASHTO_BRADD_FONT_5.shx;MINIMUM\Fstraight_squash.shx; OF 25 INCHES.\P\PNUMBER OF STRANDS PER SIDE SHALL\PBE DETERMINED BY THE 
  1
FABRICATOR.
  7
Style 1
 73
     2
 44
0.9
  0
SOLID
  5
3F09
330
431C
100
AcDbEntity
  8
Level 3
  6
Continuous
 62
     2
370
    30
100
AcDbTrace
 10
-70304.662665
 20
3047.617032
 30
0.0
 11
-70304.904961
 21
3046.286012
 31
0.0
 12
-70305.317533
 22
3047.574463
 32
0.0
 13
-70305.317533
 23
3047.574463
 33
0.0
  0
LWPOLYLINE
  5
3F08
330
431C
100
AcDbEntity
  8
Level 3
  6
Continuous
 62
     2
370
    30
100
AcDbPolyline
 90
        2
 70
   128
 43
0.0
 10
-70304.904961
 20
3046.286012
 10
-70307.396187
 20
3084.609954
  0
LWPOLYLINE
  5
3F0A
330
431C
100
AcDbEntity
  8
Level 3
  6
Continuous
 62
     2
370
    30
100
AcDbPolyline
 90
        3
 70
   128
 43
0.0
 10
-70307.613029
 20
3087.945751
 10
-70307.961738
 20
3093.310131
 10
-70314.829018
 20
3093.310131
  0
TEXT
  5
3F0B
330
431C
100
AcDbEntity
  8
STRUCTURES TEXT
100
AcDbText
 10
-70173.960371
 20
3197.008645
 30
0.0
 40
1.9375
  1
MIN.
 50
89.999998
  7
Style-straight_squash
 72
     1
 11
-70174.929121
 21
3199.417985
 31
0.0
100
AcDbText
 73
     2
  0
MTEXT
  5
3F04
330
431C
100
AcDbEntity
  8
STRUCTURES TEXT
100
AcDbMText
 10
-70327.492347
 20
3092.249385
 30
0.0
 40
1.3125
 41
0.0
 71
     8
 72
     1
  1
\T1.103;ADJUST ET BAR TO CLEAR\P2" ~ ANCHOR SLEEVE
  7
Style-straight_squash
 73
     2
 44
0.722892
  0
TEXT
  5
3F20
330
431C
100
AcDbEntity
  8
Contour Line
  6
Continuous
 62
     7
370
    53
100
AcDbText
 10
-69973.829478
 20
2979.600771
 30
0.0
 40
3.153484
  1
_____
 50
0.001719
 41
1.001634
  7
Style-SWISS_722_BOLD
 72
     1
 11
-69966.459323
 21
2979.600993
 31
0.0
100
AcDbText
  0
TEXT
  5
3F21
330
431C
100
AcDbEntity
  8
Contour Line
  6
Continuous
 62
     7
370
    53
100
AcDbText
 10
-69963.908413
 20
2986.310965
 30
0.0
 40
2.220036
  1
____
 50
359.998281
 41
0.996108
  7
Style-SWISS_722_BOLD
 72
     1
 11
-69959.854189
 21
2986.310843
 31
0.0
100
AcDbText
  0
TEXT
  5
3F22
330
431C
100
AcDbEntity
  8
Contour Line
  6
Continuous
 62
     7
370
    30
100
AcDbText
 10
-70057.288128
 20
2984.147654
 30
0.0
 40
2.338735
  1
____
 50
359.998281
  7
Style-RIBBON_131
 72
     1
 11
-70053.000447
 21
2984.147526
 31
0.0
100
AcDbText
  0
TEXT
  5
3F23
330
431C
100
AcDbEntity
  8
Contour Line
  6
Continuous
 62
     7
370
    30
100
AcDbText
 10
-70057.288128
 20
2978.519682
 30
0.0
 40
2.338735
  1
____
 50
359.998281
  7
Style-RIBBON_131
 72
     1
 11
-70053.000447
 21
2978.519553
 31
0.0
100
AcDbText
  0
LINE
  5
3F26
330
431C
100
AcDbEntity
  8
REBAR
370
    70
100
AcDbLine
 10
-70040.426098
 20
3014.817857
 30
0.0
 11
-70113.387412
 21
3014.817857
 31
0.0
  0
LINE
  5
3F27
330
431C
100
AcDbEntity
  8
REBAR
370
    70
100
AcDbLine
 10
-70113.387412
 20
3014.817857
 30
0.0
 11
-70113.387412
 21
2978.713289
 31
0.0
  0
LINE
  5
3F28
330
431C
100
AcDbEntity
  8
REBAR
370
    70
100
AcDbLine
 10
-70058.478382
 20
3006.543893
 30
0.0
 11
-70058.478382
 21
2978.713289
 31
0.0
  0
LINE
  5
3F29
330
431C
100
AcDbEntity
  8
REBAR
370
    70
100
AcDbLine
 10
-70040.426098
 20
3006.543893
 30
0.0
 11
-70058.478382
 21
3006.543893
 31
0.0
  0
LINE
  5
3F2A
330
431C
100
AcDbEntity
  8
REBAR
370
    70
100
AcDbLine
 10
-70058.478382
 20
3006.543893
 30
0.0
 11
-70113.387412
 21
3006.543893
 31
0.0
  0
LINE
  5
3F2B
330
431C
100
AcDbEntity
  8
REBAR
370
    70
100
AcDbLine
 10
-70040.426098
 20
2982.17331
 30
0.0
 11
-70058.478382
 21
2982.17331
 31
0.0
  0
LINE
  5
3F2C
330
431C
100
AcDbEntity
  8
REBAR
370
    70
100
AcDbLine
 10
-70040.426098
 20
2989.093352
 30
0.0
 11
-70058.478382
 21
2989.093352
 31
0.0
  0
LINE
  5
3F2D
330
431C
100
AcDbEntity
  8
REBAR
370
    70
100
AcDbLine
 10
-70040.426098
 20
2992.553373
 30
0.0
 11
-70058.478382
 21
2992.553373
 31
0.0
  0
LINE
  5
3F2E
330
431C
100
AcDbEntity
  8
REBAR
370
    70
100
AcDbLine
 10
-70040.426098
 20
2996.013394
 30
0.0
 11
-70058.478382
 21
2996.013394
 31
0.0
  0
LINE
  5
3F2F
330
431C
100
AcDbEntity
  8
REBAR
370
    70
100
AcDbLine
 10
-70040.426098
 20
2999.473415
 30
0.0
 11
-70058.478382
 21
2999.473415
 31
0.0
  0
LINE
  5
3F30
330
431C
100
AcDbEntity
  8
REBAR
370
    70
100
AcDbLine
 10
-70049.45224
 20
2999.473415
 30
0.0
 11
-70049.45224
 21
2978.713289
 31
0.0
  0
TEXT
  5
3F31
330
431C
100
AcDbEntity
  8
STRUCTURES TEXT
  6
Continuous
370
    30
100
AcDbText
 10
-70057.557071
 20
3004.701693
 30
0.0
 40
1.128268
  1
PREPARED:
  7
Style 2 - FS Sheet
 11
-70057.557071
 21
3005.265827
 31
0.0
100
AcDbText
 73
     2
  0
TEXT
  5
3F32
330
431C
100
AcDbEntity
  8
STRUCTURES TEXT
  6
Continuous
370
    30
100
AcDbText
 10
-70057.557071
 20
2998.132359
 30
0.0
 40
0.752179
  1
REVISED:
  7
Style 2 - FS Sheet
 11
-70057.557071
 21
2998.508448
 31
0.0
100
AcDbText
 73
     2
  0
TEXT
  5
3F33
330
431C
100
AcDbEntity
  8
STRUCTURES TEXT
  6
Continuous
370
    30
100
AcDbText
 10
-70093.02534
 20
3008.257592
 30
0.0
 40
0.846201
  1
DIRECTOR, ENGINEERING DIVISION
  7
Style 1
100
AcDbText
  0
LINE
  5
3F34
330
431C
100
AcDbEntity
  8
0
  6
DGN Style 1
 62
   252
370
    30
100
AcDbLine
 10
-70103.148427
 20
3010.055404
 30
0.0
 11
-70062.116821
 21
3010.055404
 31
0.0
  0
TEXT
  5
3F35
330
431C
100
AcDbEntity
  8
STRUCTURES TEXT
  6
Continuous
370
    30
100
AcDbText
 10
-70110.913153
 20
3011.322833
 30
0.0
 40
0.837739
  1
APPROVED:                                                  
  7
Style 1
100
AcDbText
  0
LINE
  5
3F36
330
431C
100
AcDbEntity
  8
0
  6
DGN Style 1
 62
   252
370
    30
100
AcDbLine
 10
-70056.495663
 20
3010.055404
 30
0.0
 11
-70040.555375
 21
3010.055404
 31
0.0
  0
TEXT
  5
3F37
330
431C
100
AcDbEntity
  8
STRUCTURES TEXT
  6
Continuous
370
    30
100
AcDbText
 10
-70060.461861
 20
3010.055404
 30
0.0
 40
0.846201
  1
DATE:
  7
Style 1
100
AcDbText
  0
LINE
  5
3F39
330
431C
100
AcDbEntity
  8
REBAR
  6
Continuous
 62
     5
370
    70
100
AcDbLine
 10
-70040.424886
 20
3031.745999
 30
0.0
 11
-70040.426098
 21
2978.718572
 31
0.0
  0
LINE
  5
3F3A
330
431C
100
AcDbEntity
  8
REBAR
  6
Continuous
 62
     5
370
    70
100
AcDbLine
 10
-69955.161782
 20
3016.868981
 30
0.0
 11
-70040.43409
 21
3016.871086
 31
0.0
  0
LINE
  5
3F3B
330
431C
100
AcDbEntity
  8
REBAR
  6
Continuous
 62
     5
370
    70
100
AcDbLine
 10
-69955.15379
 20
2985.22348
 30
0.0
 11
-69977.261425
 21
2985.237166
 31
0.0
  0
LINE
  5
3F3C
330
431C
100
AcDbEntity
  8
REBAR
  6
Continuous
 62
     5
370
    70
100
AcDbLine
 10
-70040.426098
 20
2996.948763
 30
0.0
 11
-70040.426098
 21
2978.718572
 31
0.0
  0
TEXT
  5
3F3D
330
431C
100
AcDbEntity
  8
STRUCTURES TEXT
  6
Continuous
370
    30
100
AcDbText
 10
-70014.503316
 20
3019.104581
 30
0.0
 40
2.146399
  1
ENGINEERING DIVISION
 50
359.998281
 41
0.995389
  7
Style-SWISS_722
100
AcDbText
  0
TEXT
  5
3F3E
330
431C
100
AcDbEntity
  8
STRUCTURES TEXT
  6
Continuous
370
    30
100
AcDbText
 10
-69976.452917
 20
2988.130108
 30
0.0
 40
1.254678
  1
SHEET
 50
359.998281
 41
1.006102
  7
Style-USTN_WORKING
 11
-69976.45288
 21
2989.384786
 31
0.0
100
AcDbText
 73
     3
  0
TEXT
  5
3F3F
330
431C
100
AcDbEntity
  8
Text
  6
Continuous
 62
     1
370
    40
100
AcDbText
 10
-69967.230875
 20
2986.107785
 30
0.0
 40
1.266123
  1
OF
 50
359.998281
 41
0.997785
  7
Style-USTN_WORKING
100
AcDbText
  0
TEXT
  5
3F40
330
431C
100
AcDbEntity
  8
Text
  6
Continuous
 62
     1
370
    40
100
AcDbText
 10
-69971.901903
 20
2983.168523
 30
0.0
 40
1.266123
  1
BRIDGE NO.
 50
359.998281
 41
0.996827
  7
Style-USTN_WORKING
 11
-69971.901865
 21
2984.434646
 31
0.0
100
AcDbText
 73
     3
  0
TEXT
  5
3F41
330
431C
100
AcDbEntity
  8
Contour Line
  6
Continuous
 62
     7
370
    53
100
AcDbText
 10
-69973.829478
 20
2979.600771
 30
0.0
 40
3.153484
  1
_____
 50
0.001719
 41
1.001634
  7
Style-SWISS_722_BOLD
 72
     1
 11
-69966.459323
 21
2979.600993
 31
0.0
100
AcDbText
  0
TEXT
  5
3F42
330
431C
100
AcDbEntity
  8
STRUCTURES TEXT
  6
Continuous
370
    30
100
AcDbText
 10
-70036.838728
 20
3008.974272
 30
0.0
 40
3.158259
  1
__________________________
 50
359.998281
  7
Style-SWISS_722
 72
     1
 11
-69996.307739
 21
3008.973056
 31
0.0
100
AcDbText
  0
TEXT
  5
3F43
330
431C
100
AcDbEntity
  8
STRUCTURES TEXT
  6
Continuous
370
    30
100
AcDbText
 10
-70038.430094
 20
3003.02539
 30
0.0
 40
3.158259
  1
__________________________
 50
359.998281
  7
Style-SWISS_722
 72
     1
 11
-69997.899105
 21
3003.024174
 31
0.0
100
AcDbText
  0
TEXT
  5
3F44
330
431C
100
AcDbEntity
  8
Contour Line
  6
Continuous
 62
     7
370
    53
100
AcDbText
 10
-69976.541348
 20
2986.310965
 30
0.0
 40
2.207454
  1
____
 50
359.998281
 41
1.001786
  7
Style-SWISS_722_BOLD
 72
     1
 11
-69972.487123
 21
2986.310843
 31
0.0
100
AcDbText
  0
TEXT
  5
3F45
330
431C
100
AcDbEntity
  8
Contour Line
  6
Continuous
 62
     7
370
    53
100
AcDbText
 10
-69963.908413
 20
2986.310965
 30
0.0
 40
2.220036
  1
____
 50
359.998281
 41
0.996108
  7
Style-SWISS_722_BOLD
 72
     1
 11
-69959.854189
 21
2986.310843
 31
0.0
100
AcDbText
  0
TEXT
  5
3F46
330
431C
100
AcDbEntity
  8
Contour Line
  6
Continuous
 62
     7
370
    30
100
AcDbText
 10
-70057.288128
 20
2995.403599
 30
0.0
 40
2.338735
  1
____
 50
359.998281
  7
Style-RIBBON_131
 72
     1
 11
-70053.000447
 21
2995.40347
 31
0.0
100
AcDbText
  0
TEXT
  5
3F47
330
431C
100
AcDbEntity
  8
Contour Line
  6
Continuous
 62
     7
370
    30
100
AcDbText
 10
-70057.288128
 20
2984.147654
 30
0.0
 40
2.338735
  1
____
 50
359.998281
  7
Style-RIBBON_131
 72
     1
 11
-70053.000447
 21
2984.147526
 31
0.0
100
AcDbText
  0
TEXT
  5
3F48
330
431C
100
AcDbEntity
  8
Contour Line
  6
Continuous
 62
     7
370
    30
100
AcDbText
 10
-70057.288128
 20
2978.519682
 30
0.0
 40
2.338735
  1
____
 50
359.998281
  7
Style-RIBBON_131
 72
     1
 11
-70053.000447
 21
2978.519553
 31
0.0
100
AcDbText
  0
TEXT
  5
3F49
330
431C
100
AcDbEntity
  8
Contour Line
  6
Continuous
 62
     7
370
    30
100
AcDbText
 10
-70052.525291
 20
2991.49889
 30
0.0
 40
3.543538
  1
_____
 50
359.998281
  7
Style-RIBBON_131
 72
     1
 11
-70044.257035
 21
2991.498642
 31
0.0
100
AcDbText
  0
TEXT
  5
3F4A
330
431C
100
AcDbEntity
  8
Contour Line
  6
Continuous
 62
     7
370
    70
100
AcDbText
 10
-70052.525291
 20
2980.129249
 30
0.0
 40
3.543538
  1
_____
 50
359.998281
  7
Style-RIBBON_131
 72
     1
 11
-70044.257035
 21
2980.129001
 31
0.0
100
AcDbText
  0
TEXT
  5
3F4B
330
431C
100
AcDbEntity
  8
STRUCTURES TEXT
  6
Continuous
370
    30
100
AcDbText
 10
-70041.703077
 20
3027.315873
 30
0.0
 40
2.369553
  1
 WEST VIRGINIA DEPARTMENT OF TRANSPORTATION
 50
359.998281
 41
1.002375
  7
Style-SWISS_722
100
AcDbText
  0
TEXT
  5
3F4C
330
431C
100
AcDbEntity
  8
STRUCTURES TEXT
  6
Continuous
370
    30
100
AcDbText
 10
-70025.806634
 20
3022.891918
 30
0.0
 40
2.369553
  1
    DIVISION OF HIGHWAYS
 50
359.998281
 41
1.002375
  7
Style-SWISS_722
100
AcDbText
  0
LINE
  5
3F4D
330
431C
100
AcDbEntity
  8
REBAR
370
    70
100
AcDbLine
 10
-70040.426098
 20
3014.817857
 30
0.0
 11
-70040.426098
 21
2978.713289
 31
0.0
  0
LINE
  5
3F4E
330
431C
100
AcDbEntity
  8
REBAR
  6
Continuous
 62
     5
370
    70
100
AcDbLine
 10
-69955.165649
 20
2994.498159
 30
0.0
 11
-69977.349856
 21
2994.501994
 31
0.0
  0
LINE
  5
3F4F
330
431C
100
AcDbEntity
  8
REBAR
  6
Continuous
 62
     5
370
    70
100
AcDbLine
 10
-69955.164876
 20
2998.972324
 30
0.0
 11
-69977.349856
 21
2998.976159
 31
0.0
  0
LINE
  5
3F50
330
431C
100
AcDbEntity
  8
REBAR
  6
Continuous
 62
     5
370
    70
100
AcDbLine
 10
-69955.164102
 20
3003.446488
 30
0.0
 11
-69977.349856
 21
3003.450323
 31
0.0
  0
LINE
  5
3F51
330
431C
100
AcDbEntity
  8
REBAR
  6
Continuous
 62
     5
370
    70
100
AcDbLine
 10
-69955.163329
 20
3007.920652
 30
0.0
 11
-69977.349856
 21
3007.924487
 31
0.0
  0
LINE
  5
3F53
330
431C
100
AcDbEntity
  8
REBAR
  6
Continuous
 62
     5
370
    70
100
AcDbLine
 10
-69955.162556
 20
3012.394816
 30
0.0
 11
-69977.349082
 21
3012.398652
 31
0.0
  0
LINE
  5
3F54
330
431C
100
AcDbEntity
  8
REBAR
  6
Continuous
 62
     5
370
    70
100
AcDbLine
 10
-69977.349856
 20
3016.872816
 30
0.0
 11
-69977.349856
 21
2978.717519
 31
0.0
  0
LINE
  5
3F55
330
431C
100
AcDbEntity
  8
REBAR
  6
Continuous
 62
     5
370
    70
100
AcDbLine
 10
-69955.161782
 20
3016.868981
 30
0.0
 11
-69977.348309
 21
3016.872816
 31
0.0
  0
TEXT
  5
3F56
330
431C
100
AcDbEntity
  8
STRUCTURES TEXT
  6
Continuous
370
    30
100
AcDbText
 10
-69976.452917
 20
2997.015985
 30
0.0
 40
1.254678
  1
DATE:
 50
359.998281
 41
1.006102
  7
Style-USTN_WORKING
 11
-69976.45288
 21
2998.270663
 31
0.0
100
AcDbText
 73
     3
  0
TEXT
  5
3F57
330
431C
100
AcDbEntity
  8
STRUCTURES TEXT
  6
Continuous
370
    30
100
AcDbText
 10
-69976.452917
 20
2992.459832
 30
0.0
 40
1.254678
  1
SCALE:
 50
359.998281
 41
1.006102
  7
Style-USTN_WORKING
 11
-69976.45288
 21
2993.71451
 31
0.0
100
AcDbText
 73
     3
  0
LINE
  5
3F58
330
431C
100
AcDbEntity
  8
REBAR
  6
Continuous
 62
     5
370
    70
100
AcDbLine
 10
-69955.166423
 20
2990.023995
 30
0.0
 11
-69977.349856
 21
2990.02783
 31
0.0
  0
LINE
  5
3F59
330
431C
100
AcDbEntity
  8
REBAR
  6
Continuous
 62
     5
370
    70
100
AcDbLine
 10
-69977.349856
 20
2988.814088
 30
0.0
 11
-70040.43409
 21
2988.815645
 31
0.0
  0
TEXT
  5
3F5A
330
431C
100
AcDbEntity
  8
STRUCTURES TEXT
  6
Continuous
370
    30
100
AcDbText
 10
-70095.932712
 20
2998.733364
 30
0.0
 40
1.267427
  1
ENGINEERING DIVISION
 50
359.998281
 41
0.995389
  7
Style-SWISS_722
100
AcDbText
  0
TEXT
  5
3F5B
330
431C
100
AcDbEntity
  8
STRUCTURES TEXT
  6
Continuous
370
    30
100
AcDbText
 10
-70102.607208
 20
3000.969749
 30
0.0
 40
1.399197
  1
    DIVISION OF HIGHWAYS
 50
359.998281
 41
1.002375
  7
Style-SWISS_722
100
AcDbText
  0
TEXT
  5
3F5C
330
431C
100
AcDbEntity
  8
STRUCTURES TEXT
  6
Continuous
370
    30
100
AcDbText
 10
-70111.993898
 20
3003.58205
 30
0.0
 40
1.399197
  1
 WEST VIRGINIA DEPARTMENT OF TRANSPORTATION
 50
359.998281
 41
1.002375
  7
Style-SWISS_722
100
AcDbText
  0
LINE
  5
3F5E
330
431C
100
AcDbEntity
  8
REBAR
370
    70
100
AcDbLine
 10
-70040.426098
 20
2985.609351
 30
0.0
 11
-70058.478382
 21
2985.609351
 31
0.0
  0
LINE
  5
3F5F
330
431C
100
AcDbEntity
  8
REBAR
  6
Continuous
 62
     5
370
    70
100
AcDbLine
 10
-69955.152737
 20
3031.731261
 30
0.0
 11
-70040.425045
 21
3031.745999
 31
0.0
  0
LINE
  5
3F61
330
431C
100
AcDbEntity
  8
CURBLINE
  6
Continuous
 62
     5
370
    70
100
AcDbLine
 10
-69955.152737
 20
3031.731261
 30
0.0
 11
-70040.425045
 21
3031.745999
 31
0.0
  0
TEXT
  5
3F62
330
431C
100
AcDbEntity
  8
STRUCTURES TEXT
  6
Continuous
370
    30
100
AcDbText
 10
-69976.608801
 20
3014.917558
 30
0.0
 40
1.254678
  1
DESIGNED BY:  THB/
 50
359.998281
 41
1.006102
  7
Style-USTN_WORKING
 11
-69976.608764
 21
3016.172236
 31
0.0
100
AcDbText
 73
     3
  0
LINE
  5
3F64
330
431C
100
AcDbEntity
  8
CURBLINE
  6
Continuous
 62
     5
370
    70
100
AcDbLine
 10
-69955.152737
 20
3031.731261
 30
0.0
 11
-70040.425045
 21
3031.745999
 31
0.0
  0
TEXT
  5
3F65
330
431C
100
AcDbEntity
  8
STRUCTURES TEXT
 62
     1
100
AcDbText
 10
-70052.782088
 20
3001.846942
 30
0.0
 40
1.315931
  1
07-02-07
  7
Style-gen_eng
 11
-70052.782088
 21
3002.504907
 31
0.0
100
AcDbText
 73
     2
  0
MTEXT
  5
3F67
102
{ACAD_XDICTIONARY
360
4382
102
}
330
431C
100
AcDbEntity
  8
STRUCTURES TEXT
100
AcDbMText
 10
-70085.385687
 20
2987.105347
 30
0.0
 40
1.60836
 41
0.0
 71
     8
 72
     1
  1
PRESTRESSED CONCRETE BEAM\PSKEWED END REINFORCING\PMISC.DESIGN AND ASSEMBLY DETAILS
  7
Style-straight_squash
 73
     2
 44
1.145455
  0
TEXT
  5
3F5D
330
431C
100
AcDbEntity
  8
STRUCTURES TEXT
  6
Continuous
370
    30
100
AcDbText
 10
-70104.049996
 20
2980.625055
 30
0.0
 40
2.041204
  1
STANDARD SHEET BR-B102A
 50
359.998281
 41
0.995389
 51
10.000004
  7
Style-SWISS_722 I 0.17453
100
AcDbText
  0
TEXT
  5
3F63
330
431C
100
AcDbEntity
  8
STRUCTURES TEXT
  6
Continuous
370
    30
100
AcDbText
 10
-69976.608801
 20
3010.433153
 30
0.0
 40
1.254678
  1
DRAWN BY:  THB/
 50
359.998281
 41
1.006102
  7
Style-USTN_WORKING
 11
-69976.608764
 21
3011.68783
 31
0.0
100
AcDbText
 73
     3
  0
TEXT
  5
3F66
330
431C
100
AcDbEntity
  8
STRUCTURES TEXT
  6
Continuous
370
    30
100
AcDbText
 10
-69976.452917
 20
3005.910782
 30
0.0
 40
1.254678
  1
CHECKED BY:  TM/
 50
359.998281
 41
1.006102
  7
Style-USTN_WORKING
 11
-69976.45288
 21
3007.16546
 31
0.0
100
AcDbText
 73
     3
  0
TEXT
  5
3F52
330
431C
100
AcDbEntity
  8
STRUCTURES TEXT
  6
Continuous
370
    30
100
AcDbText
 10
-69976.452917
 20
3001.380736
 30
0.0
 40
1.254678
  1
REVIEWED BY: TW/
 50
359.998281
 41
1.006102
  7
Style-USTN_WORKING
 11
-69976.45288
 21
3002.635414
 31
0.0
100
AcDbText
 73
     3
  0
MTEXT
  5
3F6B
330
431C
100
AcDbEntity
  8
STRUCTURES TEXT
100
AcDbMText
 10
-70008.737242
 20
2979.912825
 30
0.0
 40
1.88584
 41
0.0
 71
     8
 72
     1
  1
PRESTRESSED CONCRETE BEAM\PSKEWED END REINFORCING\PMISC.DESIGN AND ASSEMBLY DETAILS
  7
Style 1
 11
0.999999999549701
 21
-3.000996685571891E-5
 31
0.0
 73
     2
 44
1.0
  0
MTEXT
  5
3A6C
102
{ACAD_XDICTIONARY
360
4384
102
}
330
431C
100
AcDbEntity
  8
STRUCTURES TEXT
  6
Continuous
 62
     1
370
    30
100
AcDbMText
 10
-70187.00552
 20
2983.893547
 30
0.0
 40
1.3125
 41
0.0
 71
     7
 72
     1
  1
THIS SHEET SHALL BE USED IN CONJUNCTION WITH STANDARD\PSHEETS BR-B17A & B THRU BR-B42A & B, BR-B100, BR-B101, BR-B102B,\PBR-B103, BR-B104, BR-B105A & B AND BR-B106 AS APPROPRIATE.
  7
Style-straight_squash
 73
     2
 44
0.914286
  0
INSERT
  5
430B
330
431C
100
AcDbEntity
  8
Level 1
370
    30
100
AcDbBlockReference
  2
Greg's Signature
 10
-70082.58748
 20
3012.21082
 30
0.0
 41
0.25
 42
0.25
 43
0.25
  0
TEXT
  5
4312
330
431C
100
AcDbEntity
  8
STRUCTURES TEXT
 62
     1
100
AcDbText
 10
-70054.256959
 20
3010.904922
 30
0.0
 40
1.315931
  1
10-25-07
  7
Style-ITALIC_WORKING
 11
-70054.256959
 21
3011.562888
 31
0.0
100
AcDbText
 73
     2
  0
ENDSEC
  0
SECTION
  2
OBJECTS
  0
DICTIONARY
  5
432F
330
0
100
AcDbDictionary
281
     1
  3
ACAD_GROUP
350
432D
  3
ACAD_LAYOUT
350
4330
  3
ACAD_MLINESTYLE
350
432E
  3
ACAD_PLOTSETTINGS
350
4331
  3
ACAD_PLOTSTYLENAME
350
4332
  3
AcadDim
350
433A
  3
DWGPROPS
350
4365
  0
DICTIONARY
  5
4337
330
4324
100
AcDbDictionary
280
     1
281
     1
  3
ACAD_LAYERFILTERS
360
4338
  0
DICTIONARY
  5
4366
330
3672
100
AcDbDictionary
280
     1
281
     1
  3
ACAD_MTEXT_RT
360
4367
  0
DICTIONARY
  5
4368
330
3677
100
AcDbDictionary
280
     1
281
     1
  3
ACAD_MTEXT_RT
360
4369
  0
DICTIONARY
  5
436A
330
367E
100
AcDbDictionary
280
     1
281
     1
  3
ACAD_MTEXT_RT
360
436B
  0
DICTIONARY
  5
436C
330
3687
100
AcDbDictionary
280
     1
281
     1
  3
ACAD_MTEXT_RT
360
436D
  0
DICTIONARY
  5
436E
330
368C
100
AcDbDictionary
280
     1
281
     1
  3
ACAD_MTEXT_RT
360
436F
  0
DICTIONARY
  5
4370
330
3694
100
AcDbDictionary
280
     1
281
     1
  3
ACAD_MTEXT_RT
360
4371
  0
DICTIONARY
  5
4372
330
369D
100
AcDbDictionary
280
     1
281
     1
  3
ACAD_MTEXT_RT
360
4373
  0
DICTIONARY
  5
4374
330
36CE
100
AcDbDictionary
280
     1
281
     1
  3
ACAD_MTEXT_RT
360
4375
  0
DICTIONARY
  5
4376
330
36E3
100
AcDbDictionary
280
     1
281
     1
  3
ACAD_MTEXT_RT
360
4377
  0
DICTIONARY
  5
4378
330
36E7
100
AcDbDictionary
280
     1
281
     1
  3
ACAD_MTEXT_RT
360
4379
  0
DICTIONARY
  5
437A
330
37A4
100
AcDbDictionary
280
     1
281
     1
  3
ACAD_MTEXT_RT
360
437B
  0
DICTIONARY
  5
437C
330
3EA1
100
AcDbDictionary
280
     1
281
     1
  3
ACAD_MTEXT_RT
360
437D
  0
DICTIONARY
  5
437E
330
3EAD
100
AcDbDictionary
280
     1
281
     1
  3
ACAD_MTEXT_RT
360
437F
  0
DICTIONARY
  5
4380
330
379D
100
AcDbDictionary
280
     1
281
     1
  3
ACAD_MTEXT_RT
360
4381
  0
DICTIONARY
  5
4382
330
3F67
100
AcDbDictionary
280
     1
281
     1
  3
ACAD_MTEXT_RT
360
4383
  0
DICTIONARY
  5
4384
330
3A6C
100
AcDbDictionary
280
     1
281
     1
  3
ACAD_MTEXT_RT
360
4385
  0
DICTIONARY
  5
432D
102
{ACAD_REACTORS
330
432F
102
}
330
432F
100
AcDbDictionary
281
     1
  0
DICTIONARY
  5
4330
102
{ACAD_REACTORS
330
432F
102
}
330
432F
100
AcDbDictionary
281
     1
  3
Layout1
350
4323
  3
Model
350
431F
  0
DICTIONARY
  5
432E
102
{ACAD_REACTORS
330
432F
102
}
330
432F
100
AcDbDictionary
281
     1
  3
Standard
350
431A
  0
DICTIONARY
  5
4331
102
{ACAD_REACTORS
330
432F
102
}
330
432F
100
AcDbDictionary
281
     1
  0
ACDBDICTIONARYWDFLT
  5
4332
102
{ACAD_REACTORS
330
432F
102
}
330
432F
100
AcDbDictionary
281
     1
  3
Normal
350
4315
100
AcDbDictionaryWithDefault
340
4315
  0
XRECORD
  5
433A
102
{ACAD_REACTORS
330
432F
102
}
330
432F
100
AcDbXrecord
280
     1
 90
   990106
  3
 
 60
     0
 61
     0
 62
     1
 63
     1
 64
     0
 65
     0
 66
     0
 67
     3
 68
     1
 69
     1
 70
     0
 71
     0
 72
     0
 40
0.0
170
     0
  0
XRECORD
  5
4365
102
{ACAD_REACTORS
330
432F
102
}
330
432F
100
AcDbXrecord
280
     1
  1
DWGPROPS COOKIE
  2

  3

  4
rhill
  6

  7

  8

  9

300
=
301
=
302
=
303
=
304
=
305
=
306
=
307
=
308
=
309
=
 40
0.0
 41
2451789.537469
 42
2451789.537561
  1

 90
        0
  0
DICTIONARY
  5
4338
102
{ACAD_REACTORS
330
4337
102
}
330
4337
100
AcDbDictionary
281
     1
  0
XRECORD
  5
4367
102
{ACAD_REACTORS
330
4366
102
}
330
4366
100
AcDbXrecord
280
     1
280
     1
 40
636260.0
  1
\Fstraight_squash.shx;SEAL JOINT WITH HOT POUR\P\ptz;JOINT SEAL MATERIAL MEETING\P\ptz;THE REQUIREMENTS OF SUB-SECT\P\ptz;708.3.  MIN. DEPTH OF SEAL - 1"
  0
XRECORD
  5
4369
102
{ACAD_REACTORS
330
4368
102
}
330
4368
100
AcDbXrecord
280
     1
280
     1
 40
1326447.0
  1
\Fstraight_squash.shx;PREFORMED JOINT FILLER MEETING\P\ptz;THE REQUIREMENTS OF SUB-SECT.\P\ptz;708.1.1 (TYPE 1 SPONGE RUBBER - NO\P\ptz;COLOR REQUIREMENT).  CONTINUOUS\P\ptz;FULL WIDTH OF DECK PLUS 1" EXT.\P\ptz;EACH SIDE.
  0
XRECORD
  5
436B
102
{ACAD_REACTORS
330
436A
102
}
330
436A
100
AcDbXrecord
280
     1
280
     1
 40
2864343.0
  1
\Fstraight_squash.shx;PREFORMED JOINT FILLER MEETING\P\ptz;THE REQUIREMENTS OF SUB-SECT.\P\ptz;708.1.1 (TYPE 1 SPONGE RUBBER - NO\P\ptz;COLOR REQUIREMENT).  CONTINUOUS\P\ptz;FULL WIDTH OF DECK PLUS 1" EXT.\P\ptz;PAST EACH FACIA BEAM.  THICKNESS\P\ptz;SHALL BE BEARING PAD THICKNESS\P\ptz;PLUS 1{\T1.0;\W0.7x;\H0.7x;\S1#4;}".
  0
XRECORD
  5
436D
102
{ACAD_REACTORS
330
436C
102
}
330
436C
100
AcDbXrecord
280
     1
280
     1
 40
1897797.0
  1
\Fstraight_squash.shx;2" ~ ANCHOR SLEEVE.  MATERIAL SHALL BE GALV. STEEL PIPE\P\ptz;MEETING THE REQUIREMENTS OF AASHTO M232 OR PVC PIPE\P\ptz;MEETING THE REQUIREMENTS OF SUB-SECTION 714.22.  ANCHOR\P\ptz;SLEEVE LENGTH SHALL BE DEPTH OF BEAM MINUS 3".\P 
  0
XRECORD
  5
436F
102
{ACAD_REACTORS
330
436E
102
}
330
436E
100
AcDbXrecord
280
     1
280
     1
 40
1260023.0
  1
\Fstraight_squash.shx;1" ~ x 2'-0" LONG GALV. NO. 8 DEFORMED REBAR (GR. 60).  \P\ptz;DRILL, SET AND GROUT EACH ANCHOR BOLT 1 FOOT INTO\P\ptz;BRIDGE SEAT.  GROUT SHALL BE IN ACCORDANCE WITH\P\ptz;SUB-SECT. 715.5.
  0
XRECORD
  5
4371
102
{ACAD_REACTORS
330
4370
102
}
330
4370
100
AcDbXrecord
280
     1
280
     1
 40
2344453.0
  1
\FAASHTO_BRADD_FONT_5.shx;AT FIXED END FILL 2" ~ ANCHOR HOLE WITH PORTLAND CEMENT\P\ptz;MORTAR MEETING THE REQUIREMENTS OF SUB-SECT. 715.5.\P\P\ptz;AT EXPANSION END FILL 2" ~ ANCHOR HOLE WITH HOT POUR\P\ptz;BITUMINOUS JOINT FILLER MEETING THE REQUIREMENTS OF\P\ptz;SUB-SECT. 708.3.
  0
XRECORD
  5
4373
102
{ACAD_REACTORS
330
4372
102
}
330
4372
100
AcDbXrecord
280
     1
280
     1
 40
222749.0
  1
\Fstraight_squash.shx;ELASTOMERIC BEARING PAD\P\ptz;SEE SHEET BR-B102B FOR \P\ptz;DETAILS
  0
XRECORD
  5
4375
102
{ACAD_REACTORS
330
4374
102
}
330
4374
100
AcDbXrecord
280
     1
280
     1
 40
852184.0
  1
\Fstraight_squash.shx;MEMBRANE WATERPROOFING IN ACCORDANCE \P\ptz;WITH SUB-SECT. 619.  WIDTH OF MEMBRANE SHALL\P\ptz;BE FULL WIDTH OF DECK PLUS 2" LAP ONTO \P\ptz;WINGWALLS.
  0
XRECORD
  5
4377
102
{ACAD_REACTORS
330
4376
102
}
330
4376
100
AcDbXrecord
280
     1
280
     1
 40
222749.0
  1
\Fstraight_squash.shx;ELASTOMERIC BEARING PAD\P\ptz;SEE SHEET BR-B102B FOR \P\ptz;DETAILS
  0
XRECORD
  5
4379
102
{ACAD_REACTORS
330
4378
102
}
330
4378
100
AcDbXrecord
280
     1
280
     1
 40
2864343.0
  1
\Fstraight_squash.shx;PREFORMED JOINT FILLER MEETING\P\ptz;THE REQUIREMENTS OF SUB-SECT.\P\ptz;708.1.1 (TYPE 1 SPONGE RUBBER - NO\P\ptz;COLOR REQUIREMENT).  CONTINUOUS\P\ptz;FULL WIDTH OF DECK PLUS 1" EXT.\P\ptz;PAST EACH FACIA BEAM.  THICKNESS\P\ptz;SHALL BE BEARING PAD THICKNESS\P\ptz;PLUS 1{\T1.0;\W0.7x;\H0.7x;\S1#4;}".
  0
XRECORD
  5
437B
102
{ACAD_REACTORS
330
437A
102
}
330
437A
100
AcDbXrecord
280
     1
280
     1
 40
1039856.0
  1
\Fstraight_squash.shx;2" ~ OR 3" ~ FOAM BLOCKOUT\P\ptz;AFTER ERECTION, CUT STRANDS\P\ptz;FLUSH WITH BOTTOM OF VOID\P\ptz;AND FILL WITH GROUT MEETING \P\ptz;THE REQUIREMENTS OF SUB-SECT.\P\ptz;715.5
  0
XRECORD
  5
437D
102
{ACAD_REACTORS
330
437C
102
}
330
437C
100
AcDbXrecord
280
     1
280
     1
 40
53811.0
  1
\T1.105;EDGE OF SQUARE-ENDED\P\ptz;BEAM VOID
  0
XRECORD
  5
437F
102
{ACAD_REACTORS
330
437E
102
}
330
437E
100
AcDbXrecord
280
     1
280
     1
 40
17173.0
  1
\T1.108;NO. 4 SS\P\ptz;BARS
  0
XRECORD
  5
4381
102
{ACAD_REACTORS
330
4380
102
}
330
4380
100
AcDbXrecord
280
     1
280
     1
 40
2513439.0
  1
\Fstraight_squash.shx;{\T1.0;\W0.7x;\H0.7x;\S1#2;}" ~ STRAND LIFTING LOOPS EMBEDDED\P\ptz;FULL DEPTH OF BEAM MINUS COVER OR\P\ptz;A \FAASHTO_BRADD_FONT_5.shx;MINIMUM\Fstraight_squash.shx; OF 25 INCHES.\P\P\ptz;NUMBER OF STRANDS PER SIDE SHALL\P\ptz;BE DETERMINED BY THE FABRICATOR.
  0
XRECORD
  5
4383
102
{ACAD_REACTORS
330
4382
102
}
330
4382
100
AcDbXrecord
280
     1
280
     1
 40
245823.0
  1
PRESTRESSED CONCRETE BEAM\P\ptz;SKEWED END REINFORCING\P\ptz;MISC.DESIGN AND ASSEMBLY DETAILS
  0
XRECORD
  5
4385
102
{ACAD_REACTORS
330
4384
102
}
330
4384
100
AcDbXrecord
280
     1
280
     1
 40
957156.0
  1
THIS SHEET SHALL BE USED IN CONJUNCTION WITH STANDARD\P\ptz;SHEETS BR-B17A & B THRU BR-B42A & B, BR-B100, BR-B101, BR-B102B,\P\ptz;BR-B103, BR-B104, BR-B105A & B AND BR-B106 AS APPROPRIATE.
  0
LAYOUT
  5
4323
102
{ACAD_REACTORS
330
4330
330
4330
102
}
330
4330
100
AcDbPlotSettings
  1

  2

  4

  6

 40
0.0
 41
0.0
 42
0.0
 43
0.0
 44
0.0
 45
0.0
 46
0.0
 47
0.0
 48
0.0
 49
0.0
140
0.0
141
0.0
142
1.0
143
1.0
 70
   688
 72
     0
 73
     0
 74
     5
  7

 75
    16
147
1.0
148
0.0
149
0.0
100
AcDbLayout
  1
Layout1
 70
     1
 71
     1
 10
0.0
 20
0.0
 11
12.0
 21
9.0
 12
0.0
 22
0.0
 32
0.0
 14
1.000000E+20
 24
1.000000E+20
 34
1.000000E+20
 15
-1.000000E+20
 25
-1.000000E+20
 35
-1.000000E+20
146
0.0
 13
0.0
 23
0.0
 33
0.0
 16
1.0
 26
0.0
 36
0.0
 17
0.0
 27
1.0
 37
0.0
 76
     0
330
4320
  0
LAYOUT
  5
431F
102
{ACAD_REACTORS
330
4330
330
4330
102
}
330
4330
100
AcDbPlotSettings
  1

  2

  4

  6

 40
0.0
 41
0.0
 42
0.0
 43
0.0
 44
0.0
 45
0.0
 46
0.0
 47
0.0
 48
0.0
 49
0.0
140
0.0
141
0.0
142
1.0
143
1.0
 70
  1712
 72
     0
 73
     0
 74
     0
  7

 75
     0
147
1.0
148
0.0
149
0.0
100
AcDbLayout
  1
Model
 70
     1
 71
     0
 10
0.0
 20
0.0
 11
12.0
 21
9.0
 12
0.0
 22
0.0
 32
0.0
 14
0.0
 24
0.0
 34
0.0
 15
0.0
 25
0.0
 35
0.0
146
0.0
 13
0.0
 23
0.0
 33
0.0
 16
1.0
 26
0.0
 36
0.0
 17
0.0
 27
1.0
 37
0.0
 76
     0
330
431C
  0
MLINESTYLE
  5
431A
102
{ACAD_REACTORS
330
432E
102
}
330
432E
100
AcDbMlineStyle
  2
STANDARD
 70
     0
  3

 62
   256
 51
90.0
 52
90.0
 71
     2
 49
0.5
 62
   256
  6
BYLAYER
 49
-0.5
 62
   256
  6
BYLAYER
  0
ACDBPLACEHOLDER
  5
4315
102
{ACAD_REACTORS
330
4332
102
}
330
4332
  0
ENDSEC
  0
SECTION
  2
THUMBNAILIMAGE
 90
    21224
310
28000000B4000000700000000100080000000000C04E00000004000000040000000100000E000000FFFFFF0000C800000000F8000060F800F8000000F8980000F800F80010000000D878280090909000C8C8C800F8F8F800F8C8F80000F8F800FFFFFF00FFFFFF00FFFFFF00FFFFFF00FFFFFF00FFFFFF00FFFFFF00FFFFFF
310
00FFFFFF00FFFFFF00FFFFFF00FFFFFF00FFFFFF00FFFFFF00FFFFFF00FFFFFF00FFFFFF00FFFFFF00FFFFFF00FFFFFF00FFFFFF00FFFFFF00FFFFFF00FFFFFF00FFFFFF00FFFFFF00FFFFFF00FFFFFF00FFFFFF00FFFFFF00FFFFFF00FFFFFF00FFFFFF00FFFFFF00FFFFFF00FFFFFF00FFFFFF00FFFFFF00FFFFFF00FFFF
310
FF00FFFFFF00FFFFFF00FFFFFF00FFFFFF00FFFFFF00FFFFFF00FFFFFF00FFFFFF00FFFFFF00FFFFFF00FFFFFF00FFFFFF00FFFFFF00FFFFFF00FFFFFF00FFFFFF00FFFFFF00FFFFFF00FFFFFF00FFFFFF00FFFFFF00FFFFFF00FFFFFF00FFFFFF00FFFFFF00FFFFFF00FFFFFF00FFFFFF00FFFFFF00FFFFFF00FFFFFF00FF
310
FFFF00FFFFFF00FFFFFF00FFFFFF00FFFFFF00FFFFFF00FFFFFF00FFFFFF00FFFFFF00FFFFFF00FFFFFF00FFFFFF00FFFFFF00FFFFFF00FFFFFF00FFFFFF00FFFFFF00FFFFFF00FFFFFF00FFFFFF00FFFFFF00FFFFFF00FFFFFF00FFFFFF00FFFFFF00FFFFFF00FFFFFF00FFFFFF00FFFFFF00FFFFFF00FFFFFF00FFFFFF00
310
FFFFFF00FFFFFF00FFFFFF00FFFFFF00FFFFFF00FFFFFF00FFFFFF00FFFFFF00FFFFFF00FFFFFF00FFFFFF00FFFFFF00FFFFFF00FFFFFF00FFFFFF00FFFFFF00FFFFFF00FFFFFF00FFFFFF00FFFFFF00FFFFFF00FFFFFF00FFFFFF00FFFFFF00FFFFFF00FFFFFF00FFFFFF00FFFFFF00FFFFFF00FFFFFF00FFFFFF00FFFFFF
310
00FFFFFF00FFFFFF00FFFFFF00FFFFFF00FFFFFF00FFFFFF00FFFFFF00FFFFFF00FFFFFF00FFFFFF00FFFFFF00FFFFFF00FFFFFF00FFFFFF00FFFFFF00FFFFFF00FFFFFF00FFFFFF00FFFFFF00FFFFFF00FFFFFF00FFFFFF00FFFFFF00FFFFFF00FFFFFF00FFFFFF00FFFFFF00FFFFFF00FFFFFF00FFFFFF00FFFFFF00FFFF
310
FF00FFFFFF00FFFFFF00FFFFFF00FFFFFF00FFFFFF00FFFFFF00FFFFFF00FFFFFF00FFFFFF00FFFFFF00FFFFFF00FFFFFF00FFFFFF00FFFFFF00FFFFFF00FFFFFF00FFFFFF00FFFFFF00FFFFFF00FFFFFF00FFFFFF00FFFFFF00FFFFFF00FFFFFF00FFFFFF00FFFFFF00FFFFFF00FFFFFF00FFFFFF00FFFFFF00FFFFFF00FF
310
FFFF00FFFFFF00FFFFFF00FFFFFF00FFFFFF00FFFFFF00FFFFFF00FFFFFF00FFFFFF00FFFFFF00FFFFFF00FFFFFF00FFFFFF00FFFFFF00FFFFFF00FFFFFF00FFFFFF00FFFFFF00FFFFFF00FFFFFF00FFFFFF00FFFFFF00FFFFFF00FFFFFF00FFFFFF00FFFFFF00FFFFFF00FFFFFF00FFFFFF00FFFFFF00FFFFFF00FFFFFF00
310
FFFFFF00FFFFFF00FFFFFF00FFFFFF00FFFFFF00FFFFFF00FFFFFF00FFFFFF00FFFFFF00FFFFFF00FFFFFF00FFFFFF0000000000000000000000000000040404040404040404040404040404040404040404040404040404040404040404040404040404040404040404040404040404040404040404040404040404040404
310
04040404040404040404040404040404040404040404040404040404040404040404040404040404040404040404040404040404040404040404040404040404040404040404040404040404040404040404040404040404040404040402020202020202020000000000000000000000000004040404040404040404040404
310
04040404040404040404040404040404040404040404040404040404040404040404040404040404040404040404040404040404040404040404040404040404040404040404040404040404040404040404040404040404040404040404040404040404040404040404040404040404040404040404040404040404040404
310
04040404040404040404040404040404040404020202020202020200000000000000000000000000040404040404040404040404040404040404040404040404040404040404040404040404040404040404040404040404040404040404040404040404040404040404040404040404040404040404040404040404040404
310
04040404040404040404040404040404040404040404040404040404040404040404040404040404040404040404040404040404040404040404040404040404040404040404040402020202020202020000000000000000000000000004040404040404040404040404040404040404040404040404040404040404040404
310
04040404040404040404040404040404040404040404040404040404040404040404040404040404040404040404040404040404040404040404040404040404040402020202020202020202020202020202040404040404040404040202020202020202020202020202020202020202020202020404040404040404040202
310
02020202020200000000000000000004040404040404040404040404040404040404040404040404040404040404040404040404040404040404040404040404040404040404040404040404040404040404040404040404040404040404040404040404040404040404040404040404040404040404040202020202020202
310
02020202020202020404040404040404040402020202020202020202020202020202020202020202020204040402020202040404040404020202020000000000000000000404040404040404040404040404040404040404040404040404040202020202020202020202020202020202020202020204040404040404040404
310
04040404040404040404040402020202020202020202020202020202020202020202020202020204040404040402020202020202020202020202020202040404040404040404040202020202020202020202020202020202020202020202020404040202020204040404040402020202000000000000000000040404040404
310
04040404040404040404040404040404040404040202020202020202020202020202020202020202020202020404040404040404040404040404040404040404040202020202020202020202020202020202020202020202020202020202040402020202020202020202020202020202020202040404040404040404040402
310
02020202020202020202020202020202020202040404040404040404040404040404020202020000000000000000000404040404040404040404040404040404040404040404040404020202020202020202020202020202020202020202020202040404040404040404040404040404040404040404020202020202020202
310
02020202020202020202020202020202020202020404020202020202020202020202020202020202020404040404040404040404020202020202020202020202020202020202020204040404040404040404040404040402020202000000000000000000040404040404040404040404040404040404040404040404040402
310
02020202020202020202020202020202020202020202020404040404040404040404040404040404040404040202020202020202020202020202020202020202020202020202020202040402020202020202020202020202020202020202040404040404040404040402020202020202020202020202020202020202020404
310
04040404040404040404040404020202020000000000000000000404040404040404040000000000000000000000000000000000020202020202020202020202020202020202020202020202000000000000000000000000000000000000000000020202020202020202020202020202020202020202020202020004040404
310
04040202020202020202020202020202020202040404040404040404040404040404040404040404040404040404040404040404040404040404040404040404040402020202000000000000000000040404040404040404000000000000000000000000000000000002020202020202020202020202020202020202020202
310
02020000000000000000000000000000000000000000000000000000000000000000000202020202020202020202020000040404040404020202020202020202020202020202020204040202020404040404040404040404040404040404040404040404040404040404040404040404040404040404040202020200000000
310
00000000000404040404040404040000000000000002020202020202000000020202020202020202020202020202020202020202020202000000000000000000000000000000000000000000000000000000000000000000020202020202020202020202000004040404040402020202020202020202020202020202020404
310
0202020404040404040404040404040404040404040404040404040404040404040404040404040404040404040202020200000000000000000004040404040404040400000000000000020202020202020D0D0D0D0D0D02020202020202020202020D0D0D0D0D0D0D0D020000000000000000000000000000000000000000
310
00000000000000000000000000000202020202020202020202020200040404040202020202020202020202020202020202020202040202020202020204040400000000000000000000000000000000000000040404020202020202020204040404040202020200000000000000000004040404040404040400000000000000
310
020202020202020D0D0D0D0D0D02020202020202020202020D0D0D0D0D020D0D0D000D0D0D020202020000000000000000000000000000000000000000000000000000020202020202020202020202020004040404020202020202020202020202020202020202020204020202020202020404040000000000000000000000
310
0000000000000000040404020202020202020204040404040000000000000000000000000004040404040404040400000000000000020202020202020D0D0D0D0D0D0D020202020202020202020D0D0D0D0D020D0D0D0D0D0D0D02020202000000000000000000000000000000000000000000000000000002020202020202
310
0202020202020004040404020202020202020202020202020202020202020204020202020202020404040000000000000000000000000000000000000004040402020202020202020404040404000000000000000000000000000404040404040404040000000000000002020D0D0D0D0D0D0D0D0000000002020202020202
310
0202020D0D0D0D0D02020D0D0D0D0D0D0202020202020202000000000000000000000000000000000000000000000202020202020202020202020200040404040404040909040B0B0B0B0B0B0B0B0B0B0209090402020202020204040404040000000000000000000000000000000000000004040402020202020202020404
310
0404040000000000000000000000000004040404040404040400000000000000000D0D0D02020D0D0D0D0202020202000D0D02020202020202020D0D0D0D0D0D0D0D0D0D00000D0D0D02020202000000000000000000000000000000000000000000000202020201010101010202020200040404040202020209040B0B0B0B
310
0B0B0B0B0B0B0B090904020202020202040404040400000000000000000000000000000000000000040404020202020202020204040404040000000000000000000000000004040404040404040400000000000000000D0D0D02020D0D0D0D0202020202090D0D02020202020202020D0D0D0D0D0D0D0D0D0D090D0D0D0D02
310
020202000000000000000000000000000000000000000000000202020201010101010202020200040404040202020209040B0B0B0B0B0B0B0B0B0B0B09090402020202020204040404040404040404040404040404040404040404040404040402020202020202020204040404000000000000000000000000000404040404
310
0404040400000000000000000D0D0D020200000D0D0202020202090D0D02020202020202020D0D0D0D0D0D0D0D0D0D090D0D0D0D00000000000000000000000000000000000000000000000000000202020101010101020202020000040404040202020204040B0B0B0B0B0B0B0B0B0B040404040404040404040404040404
310
04040404040404040404040404040404040404040404020202020202020202040404040000000000000000000000000004040404040404040400000000000000000D0D0D000000000D090909090909090D0D0D0909090909090D0D0D02020D0D0D0D0D0D090D0D0D0909000000000000000000000000000000000000000000
310
00000000000101010101010101000000000000000004040404040404040B0404040B0B0B0B0404040404040404040404040404040404040404040404020202020202020202020202040404020202020202020202040404040000000000000000000000000004040404040404040400000000000000000D0D0D090909090303
310
0303030303030D0D0D0303030303030D0D0D02020D0D0D0D0D0D090D0D0D09090000000000000000000000000000000000000000000000000000010101010101010100000000000000000404040404040404040404040404040404040404040404040404040404040404040404040404020202020202020202020202020202
310
02040404040404040404040404040000000000000000000000000004040404040404040400000000000000000D0D0D09090D0D0D0D0D0D0D0D0D0D0D0D0D0D0D0D05050505050505050D0D0D0D0D0D050D0D0D0505000000000000000000000000000000000000000000000000000001010101010101010000000000000000
310
040404040404040404040404040404040404040404040404040404040404040404040404040402020202020202020202020202020202040404040404040404040404040000000000000000000000000004040404040404040400000000000000000D0D0D09090D0D0D0D0D0D0D0D0D0D0D0D0D0D0D0D05050505050505050D
310
0D0D0D0D0D050D0D0D05050000000000000000000000000000000000000000000000000000010101010101010100000000000000000000000000000000000000000000000000000000000000000000040404020202020202020202020202020202020202020202020202020404040404040404040404040400000000000000
310
00000000000004040404040404040400000000000000000D0D0D09090D0D0D0D0D0D0D0D0D0D0D0D0D0D0D0D0D0D0105050502050505050D0D0D050D0D0D0909000000000000000000000000000000000000000000000000000001010101010101010000000000000000000000000000000000000000000000000000000000
310
000000000004040404040404040404040404040404040404040404040404040404040404040404040404040404040000000000000000000000000004040404040404040400000000000000000D0D0D090D0D0D0D0D0D0D0D0D0D0D0D0D0D0D0D0D0D010104040202020909090D0D0D090D0D0D090900000000000000000000
310
00000000000000000000000000000000010101010101010100000000000000000000000000000000000000000000000000000000000000000000040404040404040404040404040404040404040404040404040404040404040404040404040404040400000000000000000000000000040404040404040404000000000000
310
00000D0D0D090D0D0D0D0D0D0D0D0D0D0D0D0D0D0D0D0D0D010104040202020409090D0D0D090D0D0D0909000000000000000000000000000000000000000000000000000101010101010101010000000000000000000000000000000000000000000000000000000000000000000004040404040404040404040404040404
310
040404040404040404040404040404040404040404040404040000000000000000000000000004040404040404040400000000000000000D0D0D0D0D0D0D0D0D0D0D0D0D0D0D0D0D0D0D0D0D0D010104040202020409090D0D0D090D0D0D090900000000000000000000000000000000000000000000000001010101010101
310
0101010000000000000000000000000000000000000000000000000000000000000004040404040404040404040404040404040404040404040404040404040404040404040404040404040404040000000000000000000000000004040404040404040400000000000000090D0D0D0D0D0D0D0D0D0D0D0D0D0D0D0D0D0D0D
310
0D0D0D010104040202020409090D0D0D090D0D0D09090000000000000000000000000000000000000000000000000101010101010D0D0D0D0D0D000000000000000000000000000000000000000000000000000000000004040404040404040404040404040404040404040404040404040404040404040404040404040404
310
040404040000000000000000000000000004040404040404040400000000000009090D0D0D0D0D0D0D0D0D0D0D0D0D0D0D0D0D0D0D0D0D01010101010909090909090D0D0D010D0D0D09090000000000000000000000000000000000000000000000000001010101010D0D0D0D0D0D0D000000000000000000000000000000
310
0000000000000000000000000004040404040404040404040404040404040404040404040404040404040404040404040404040404040404040000000000000000000000000004040404040404040400000000000009090D0D0D0D0D0D0D0D0D0D0D0D0D0D0D0D0D0D0D0D0D01010101010909090909090D0D0D010D0D0D0D
310
0D0202020202020202020202000000000000000000000000000001010101010D0202020202020000000000000000000000000000000000000000000000000000000004040404040404040404040404040404040202020202020202020202020404040404040404040404040404040000000000000000000000000004040404
310
040404040400000000000909090D0D0D0D0D0D0D0D0D0D0D0D0D0D0D0D0D0D0D0D0D01010101010909090909090D0D0D010D0D0D0D0D02020202020202020202020000000000000000000000000001010101010D0D020202020202000000000000000000000000000000000000000000000000000000000404040404040400
310
000D0D0202020202020202020202020202020202020202020202020204040404040404040000000000000000000000000004040404040404040400000000000909090D0D0D0D0D0D0D0D0D0D0D0D0D0D0D0D0D0D0D0D0D01010104040202020909090D0D0D0D0D0D0D0D0D0202020202020202020202000000000000000000
310
0000000001010101010D0D0D0D0D0D0D0D000000000000000000000000000000000000000000000000000000000404040404040400000D0D0D0D0D0D0D0D0202020202020202020202020D0D0D0D0D0601040404040404040400000000000000000000000000040404040404040404000000000909090D0D0D0D0D0D0D0D0D
310
0D0D0D0D0D0D0D0D0D0D0D0D0D01010104040202020909090D0D0D0D0D0D0D0909000000000000000000000000000000000000000000000001010101010D0D0D0D0D0D0D0D0D000000000000000000000000000000000000000000000000000000000404040404040400000D0D0D0D0D0D0D0D0D06010101000000000D0D0D
310
0D0D0D0D0D0601040404040404040400000000000000000000000000040404040404040404000000000909090D0D0D0D0D0D0D0D0D0D0D0D0D0D0D0D0D0D0D0D0D010101010404020202090D0D0D0D0D0D0D0D0D0909000000000000000000000000000000000000000000000001010101010D0D0D02020202020200000000
310
00000000000000000000000000000000000000000000000004040404040404000202020D01060D0D0D0D0601010100000000020202010D0D0D0D06010404040404040404000000000000000000000000000404040404040404040000000909090D0D0D0D0D0D0D0D0D0D0D0D0D0D0D0D0D0D0D0D0D0D010101010404020202
310
090D0D0D0D0D010D0D0D0909000000000000000000000000000000000000000000000101010101010D0D0D0202020202020000000000000000000000000000000000000000000000000000000004040404040404000202020D0D0D0D0D0D0D06010101000000000202020D0D0D0D0D06010404040404040404000000000000
310
0000000000000004040404040404040400000909090D0D0D0D0D0D0D0D0D0D0D0D0D0D0D0D0D0D0D0D0D0D0D010101010404090909090D0D0D0D0D090D0D0D0909000000000000000000000000000000000000000000000101010101010D0D0D0D0D0D0D0D0D00000000000000000000000000000000000000000000000000
310
0000000404040404040400000D0D0D0D0D0D0D0D0D06010101000000000D0D0D0D0D0D0D0D060104040404040404040000000000000000000000000004040404040404040400000909090D0D0D0D0D0D0D0D0D0D0D0D0D0D0D0D0D0D0D0D0D0D0D010101010404090909090909090909090D0D0D0909000000000000000000
310
000000000000000000000000010101010101010D0D0D0D0202020202000000000000000000000000000000000000000000000000000000000404040404040400000D0D0D0D0D0D0D0D0D0D0D0D0002020202020D0D0D0D0D0D0D0104040404040404040400000000000000000000000000040404040404040404000909090D
310
0D0D0D0D0D0D0D0D0D0D0D0D0D0D0D0D0D0D0D0D0D0D01010101010405090909050909050509090D0D0D09090000000000000000000000000000000000000000000101010101010D02020D0D02020202020000000000000000000000000000000000000000000000000000000004040404040404000000000000010D0D0D0D
310
0D0D0D0D0D020202020D0D0D0D0D0D0D01040404040404040404000000000000000000000000000404040404040404040009090D0D0D0D0D0D0D0D0D0D0D0D0D0D0D0D0D0D0D0D0D0D0D0D03030505050505050505050505050505050D0D0D05050000000000000000000000000000000000000000000000000101010D0202
310
0D0D0202020202000000000000000000000000000000000000000000000000000000000404040404040400000000000D0D020202020D0D0D0D0D020202020D0D0D0D020202020D0404040404040404000000000000000000000000000404040404040404040209090D0D0D0D0D0D0D0D0D0D0D0D0D0D0D0D0D0D0D0D0D0D0D
310
0D030305050505050505050505050505050505050505050000000000000000000000000000000000000000000000000101010D02020D0D0202020202000000000000000000000000000000000000000000000000000000000404040404040400000000000D0D020202020D0D0D0D0D000000000D0D0D0D020202020D040404
310
0404040404000000000000000000000000000404040404040404040202020D0D0D030D0D0D0D0D0D0D0D0D030D0D0D0303030303030303030303030D0D0D02020509090509090905090109090000000000000000000000000000000000000000000000000101010D02020D0D02020202020000000000000000000000000000
310
00000000000000000000000000000404040404040400000000000D0D020202020D0D0D00000000000000000D0D020202020D0404040404040404000000000000000000000000000404040404040404090202020D0D0D02090909090D0D0D0D0D0D0D0D020202090909090909090909090D0D0D0D0204090909090909090909
310
09090000000000000000000000000000000000000000000000000000000D02020D0D0202020202000000000000000000000000000000000000000000000000000000000404040404040400000000000D0D0D0D0D0D0D0D0D00000000000000000D0D0D0D0D0D0D040404040404040400000000000000000000000000040404
310
04040404040402020202020202020209090D0D0D0D0D0D0D0D020202090909090909090909090D0D0D0D0D020202020202020202020202000000000000020202020202020202020202020202000000000000000202000002020202020000000000000000000000000000000000000000000000000000000004040404040404
310
00000000010D0D0D0D0D0D0D0D0D00000000000000000D0D0D0D0D0D0D04040404040404040000000000000000000000000004040404040404040400020D020202020202090D0D0D0D0D0D0D0D0D020202090909090909090909090D0D0D0D0D02020202020202020202020200000000000002020202020202020202020202
310
020200000000000000000000000202020202000000000000000000000000000000000000000000000000000000000404040404040400000000010D0D0D0D0D0D0D0D0D01000000000000000D0D0D0D0D0D0D0404040404040404000000000000000000000000000404040404040404040000000202020202020D0D0D0D0D0D
310
0D090D09090202020202020202090909090D0D0D090D0202020202020202020202020000000000020202020202020202020202020202020200000000000000000000020202020200000000000000000000000000000000000000000000000000000000040404040404040000000001010D0D0D0D0D0D010100000000000000
310
00010D0D0D0D0D01040404040404040400000000000000000000000000040404040404040404000000090902020202020D0D0D0D0D0D0D0D0D0D02020202020202020D0D0D0D0D0D0D0D020202020202020D0D0D0D000000000000000202020202020202020202020202020202000000000000000000000202020202000000
310
00000000000000000000000000000000000000000000000000040404040404040000000001010D0D0D0D0D0D01010000000000000000010D0D0D0D0D04040404040404040400000000000000000000000000040404040404040404000000000000020202020D000D0D0D0D0D020202020202020202020202020D0D0D0D0202
310
020202020202020202020202020202020000020202020202020202020202020202020200000000000000000000000000000000000000000000000000000000000000000000000000000000000000040404040404040000000000000D0D0D0D0D0D0000020202020202020000000D0D0D0D0404040404040404040000000000
310
0000000000000000040404040404040404000002020202020202020202000D0D0D0D020202020202020202020202020D0D0D0D02020202020202020202020202020202020200000202020202020202020202020202020202000000000000000000000000000000000000000000000000000000000000000000000000000000
310
00000000040404040404040000000000000D0D0202020D0000020202020202020000000202020204040404040404040400000000000000000000000000040404040404040404000202020202020202020202020D0D0D0002020202020202020202020202000000000202020202020202020202020202020202020000020202
310
020202020202020202020202020200000000000000000000000000000000000000000000000000000000000000000000000000000000000000040404040404040000000000000D0D0202020D000002020202020202000000020202020404040404040404040000000000000000000000000004040404040404040400020202
310
0202020202020202020D0D0D00000000000000000000000000000000000000000000000000000000000000000000000000000202020202020202020202020202020202000000000000000000000D0D0D0D0D0D0D0D0D0D020202020D0D0D0D0D0D0D0D0D00000000000000000000040404040404040000000000000D0D0202
310
020D0000020202020202020000000202020204040404040404040400000000000000000000000000040404040404040404000202020202020202020202020D0D000000000000000000000000000000000000000000000000000000000000000000000000000000000202020202020202020202020202020000000000000000
310
0000000D0D0D0D0D0D0D0D0D0D020202020D0D0D0D0D0D0D0D0D0000000000000000000004040404040404000000000000000000000000000002020202020202000000000000000404040404040404040000000000000000000000000004040404040404040400000000000000000000000000000000000000000000000000
310
00000000000000000000000000000000000000000000000000000000000000000000000000000000000000000000000000000000000000000D03030303030303030302020202030303030303030303030000000000000000000404040404040400000000000000000000000202020202020202020200000000000000040404
310
040404040404000000000000000000000000000404040404040404040000000000000000000000000000000000000000000000000000000000000000000000000000000000000000000000000000000000000000000000000000000000000D0D0D0D0D0D0D0D0D0D0D0D0D0D0D0D0303030303030303030303030303030303
310
03030303030300000000000000000004040404040404000000000000000D0D0D0D0D02020202020202020200000000000000040404040404040404000000000000000000000000000404040404040404040000000000000000000000000000000000000000000000000000000000000000000D0D0D0D0D0D0D0D0D0D0D0D0D
310
0D0D0D0D0D0D0D0D0D0D0D0D0D0000000000000D0D0D0D0D0D0D0D0D0D0D0D0D0D0D0303030303030303030303030303030303030303030303030300000000000000000004040404040404000000000000000D0D0D0D0D02020202020202020201010101010000040404040404040404000000000000000000000000000404
310
0404040404040400000000000000000000000000000000000000000000000000000000000000000D0D0D0D0D0D0D0D0D0D0D0D0D0202020D0D0D0D0D0D0D0D0D0D0D0D00000000000D0D0D0D0D0D0D0D0D0D0D0D0D0D0303030303030303030303030303030303030303030303030303000000000000000000040404040404
310
04000000000000000D0D0D0D0D010102020202020202010101010D0D0D0D04040404040404040000000000000000000000000004040404040404040400000000000000000000000000000000000000000000000000000000000000000D0D0D0D0D0D0D0D0D0D0D0D0D0202020D0D0D0D0D0D0D0D0D0D0D0D01000000000D0D
310
0D0000000000000000000000030303030303030303030303030303030303030303030303030300000000000000000004040404040404000000000000010D0D0D0D010101010101010101010101010D0D0D0D0D0404040404040404000000000000000000000000000404040404040404040000000000000000000000000000
310
0D0D0D0D0D0D0D0D0D0D0D0D0D0D0D0D0D0D0D0D0D010101010101010101010202020101010101010101010D0D0D01000000000D0D0D0000000000000000000003030303030D000000000000000000000000000000000000000000000000000000000000040404040404040000000000000D0D0D0D0D010101010101010101
310
010101010D0D0D0D0D040404040404040400000000000000000000000000040404040404040404000000000000000000000000000D0D0D0D0D0D0D0D0D0D0D0D0D0D0D0D0D0D0D0D0D0D010101010101010101010101010101010101010101010D0D0D01000000000D0D0D0000000000000000000003030303030D00000000
310
0000000000000000000000000000000000000000000000020202020202020202040000000D0D0D0D0D0D0D01010101010101010101010101010D0D0D0D0D040404040404040400000000000000000000000000040404040404040404000000000000000000000000000D0D0D0D0D0D0D0D0D0D0D0D0D0D0D0D0D0D0D0D0D0D
310
0101010101010101010101010101010101010101010101010101000000000D0D0D00000000000000000003030303030D0D000000000000000000000000000000000000000000000000000000020202020202020202040D0D0D0D0D0D0D0D010606060000000000000000000606060101010D0D040404040404040400000000
310
000000000000000000040404040404040404000000000000000000000000000D0D0D0D0D0D0D0D0D000D0D0D0D0D0D0D0D0D0101010101010101010101010101010101010101010101010101010101000000000D0D0D000000000000000003030303030D0D0D00000000000000000000000000000000000000000000000000
310
0000020202020202020202040D0D0D0D0D0D0101010606060000000000000000060606010101010202040404040404040400000000000000000000000000040404040404040404000000000000000000000000000D0D0D0D0D0D0D0D0D000D0D0D0D0D0D0D0D0D010101010100000000000000000000000000000000000000
310
0000000000000000000D0D0D000000000000000003030303030D0D0D000000000000000000000000000000000000000000000000000000020202020202020202040202020202000101010606060000000000000006060600010101010202040404040404040400000000000000000000000000040404040404040404000000
310
000000000000000000000D0D0D0D0D0D0D0D0D000D0D0D0D0D0D0D0D0D0101010101000000000000000000000000000000000000000000000000000000000D0D0D0000000000000003030303030D0D0D0D00000002020202020202020200000000000000000000000000000002020202020202020204020202020200010101
310
0106060601010101010106060601010101010202040404040404040400000000000000000000000000040404040404040404000000000000000000000000000D0D0D0D0D0D0D0D0D000D0D0D0D0D0D0D0D0D0101010101000000000000000000000000000000000000000000000000000000000D0D0D000000000000000303
310
0303030D0D0D00000000020202020202020202000000000000000000000000000000020202020202020202040002020202020101010106060601010101010606060101010101010104040404040404040400000000000000000000000000040404040404040404000000000000000000000000000202020202020202020202
310
020D0202020202020101010101000000000002020202020202020000000000000000000000000000000D0D0D00000000000003030303030D0D0D000000000002020202020202020200000000000000000000000000000002020202020202020204000202020202010101010606060101010106060601010101010101010404
310
0404040404040400000000000000000000000000040404040404040404000000000000000000000000000202020202020202020202020D0202020202020101010101000000000002020202020202020000000000000000000000000000000D0D0D0000000000000303030303000D0D0D020202020202020202000000000000
310
00000000000000000000000000020202020202020202040000020202020201010106060601010106060601010101010101010104040404040404040400000000000000000000000000040404040404040404000000000000000000000000000202020202020202020202020D02020202020201010101010000000000020202
310
02020202020000000000000000000000000000000D0D0D0000000000030303030300000D0D0D0202020202020202020000000000000000000000000000000000000002020202020202020204000002020202020101010606060101060606010101010101010101010404040404040404040000000000000000000000000004
310
0404040404040404000000000000000000000000000202020202020202020202020D0202020202020101010101000000000000000000000000000000000000000000000000000000000D0D0D000000000303030303000000000D0D020202020202020202000000000000000000000000000000000000000202020202020202
310
020400000202020202010101010D0A0A0A0A0A060101010101010101010104040404040404040400000000000000000000000000040404040404040404000000000000000000000000000D0D0D0D0D0D0D0D0D000D0D0D0D0D0D0D0D0D0101010101000000000000000000000000000000000000000000000000000000000D
310
0D0D0000000003030303030000000000000000000000000000000000000000000000000000000000000000000002020202020202020204000000020202020D0D0D0D0D0A0A0A0A0A06010101010101010101010404040404040404040000000000000000000000000004040404040404040400000000000000000000000000
310
0D0D0D0D0D0D0D0D0D000D0D0D0D0D0D0D0D0D0101010101010101010101010101010101010101010101010101010000000000000D0D0D00000003030303030303030303030303030303030303030303030303030303030303030000000000000000000000040404040404040000000202020D0D0D0D0D0D0A0A0A0A0A0101
310
01010101010101010104040404040404040400000000000000000000000000040404040404040404000000000000000000000000000D0D0D0D0D0D0D0D0D000D0D0D0D0D0D0D0D0D0101010101010101010101010101010101010101010101010101010000000000000D0D0D00000003030303030303030303030303030303
310
03030303030303030303030303030303000000000000000000000004040404040404000000000D0D0D0D0D0D0D010A0A0A0A0A010101010101010101010104040404040404040400000000000000000000000000040404040404040404000000000000000000000000000D0D0D0D0D0D0D0D0D0D0D0D0D0D0D0D0D0D0D0D0D
310
0D0101010101010101010101010101010101010101010101010101000000000D0D0D0D0D030303030303030303030303030303030303030303030303030303030303030303030300000000000000000004040404040404000000000D0D0D0D0D0D02020A0A0A0A0A0202020201010101010000040404040404040404000000
310
00000000000000000000040404040404040404000000000000000000000000000202020202020202020202020D0202020202020D0D0D0101010101010101010101010101010101010101010101010101000000000D0D0D0D0D0303030303030303030303030303030303030303030303030303030303030303030303000000
310
00000000000004040404040404000000000000000D0D0D02020D02020202020202020000000000000004040404040404040400000000000000000000000000040404040404040404000000000000000000000000000202020202020202020202020D0202020202020D0D0D0101010101010101010101010101010101010101
310
01010101000002020202020D0D0D0D0D0D0303030303030303030303030303030303030303030303030303030303030300000000000000000000000404040404040400000000000000000D0D02020D020202020202020200000000000000040404040404040404000000000000000000000000000404040404040404040000
310
00000000000000000000000202020202020202020202020D02020202020200000101010101010101010101010101010101010101010101010100020202020202020202020202030303030303030303030303030303030303030303030303030303030303030000000000000000000000040404040404040000000000000000
310
000000000002020202020200000000000000000004040404040404040400000000000000000000000000040404040404040404000000000000000000000000000202020202020202020202020D0202020202020000000000000000000000000000000000000000000000000000000002020202020202020202020202020202
310
02020202020202020202000000000000000000000000000000000000000000000000000000000404040404040400000000000000000000000000020202020202000000000000000000040404040404040404000000000000000000000000000404040404040404040000000000000000000202020202020202020202020202
310
02020D02020202020200000000000000000000000000000000000000000000000000000000020202020202020202020202020202020202020202020202020200000000000000000000000000000000000000000000000000000000040404040404040000000000000000000000000002020202020200000000000000000004
310
04040404040404040000000000000000000000000004040404040404040400000000000000000002020202020202020202020202020202020202020202020000000000000000000000000000000000000000000000000000000002020202020202020202020202020202020202020202020202020000000000000000000000
310
00000000000000000000000000000000000404040404040400000000000101010101010101020202020202010101010101010100040404040404040404000000000000000000000000000404040404040404040000000000000000000202020202020202020202020202020202020202020202000000000000000000000000
310
00000000000000020202020200000000020202020202020202020202020202020202020202020202020200000000000000000000000000000000000000000000000000000000040404040404040000000000010101010101010102020202020201010101010101010004040404040404040400000000000000000000000000
310
04040404040404040400000000000000000002020202020202020202020202020202020202020202020000000000000000000000000000000000000002020202020202020202020202020202020202020202020202020202020202020202020000000000000000000000000000000000000000000000000000000004040404
310
04040400000001010101010101010101020202020202010101010101010101010404040404040404000000000000000000000000000404040404040404040000000000000000000202020202020202020202020202020202020202020202000000000000000000000000000000000000000202020202020202020202020202
310
02020202020202020202020202020202020202020200000000000000000000000000000000000000000000000000000000040404040404040000000106060606060606060102020202020206060606060101010101040404040404040400000000000000000000000000040404040404040404000000000000000000020202
310
02020202020202020202020202020202020202020000000000000000000000000000000000000002020202020202020202020202020202020202020202020202020202020202020202020000000000000000000000000000000000000000000000000000000004040404040404000000010606060606060606010101010101
310
060606060606010101010104040404040404040000000000000000000000000004040404040202020202000000000000000002020202020202020202020202020202020202020202020000000000000000000000000000000000000002020202020202020202020202020D0D0D0D0101010101010101010100000000000000
310
00000000000000000000000000000000000000000000000000000000040404040404040000000106060606060606060606060606060606060606060101010101040404040404040400000000000000000000000000040404040402020202020202020202020202020202020202020202020202020202020202020202020200
310
00000000000000000000000000000000000002020202020202020202020202020D0D0D0D01010101010101010101000000000000000000000000000000000000000000000000000000000000000000000004040404040404000000010606060606060606060606060606060606060606010101010104040404040404040000
310
000000000000000000000004040404040202020202020202020202020202020202020202020202020202020202020202020202020202020202020200000000000000000000000002020202020202020202020202020D0D0D0D0D01010101010101010101010000000000000000000000000000000000000000000000000000
310
00000000000000040404040404040000000106060606060606060000000000000606060606060101010101040404040404040400000000000000000000000000040404040402020202020202020202020202020D0D0D0D0D0101010101010D0D02020D0D0D0202020202020202020202000000000000000000000000020202
310
02020202020202020202020D0D0D0D0D010101010101010101010100000000000000000000000000000000000000000000000000000000000000000004040404040404000000010606060606060606000000000000060606060606010101010104040404040404040000000000000000000000000004040404040202020202
310
0202020202020202020D0D0D0D0D0D01010101010D0D02020D0D0D0202020202020202020202000000000202020202000000020202020202020202020202020200000D0D0D01010101010101010101010000020202020000000000000000000000000000000000000000000000000000000404040404040400000001060606
310
06060606060000000000000606060606060101010101040404040404040400000000000000000000000000040404040402020202020202020202020202020D0D0D0D0D0D0D010101010D0D0D0D0D0D0D0D02020202020202020202000000000202020202020202020202020202020202020D0D0D0D0000010D0D0D01000000
310
0001010101010D0D0D02020202020202020202000000000000000000000000000000000000000004040404040404000000010606060606060606060606060606060606060601010D0D0D04040404040404040400000000000000000000000000040404040402020202020202020202020202020D0D0D01010D0D0D01010101
310
010D0D0D0D0D0202020000000000000000000000000202020202020202020202020202020202020D0D0D0D0D0D0D0D0D0D0100000000010101010D0D0D0D02020202020202020202020000000000000000000000000000000000000004040404040404000000010606060606060606060606060606060606060601010D0D0D
310
04040404040404040400000000000000000000000000040404040402020202020202020202020202020D0D0D01010D0D0D01010101010D0D0D02020202020000000000000000000000000202020202020202020202020202020202020D0D0D0D0D0D0D0D0D0D01000100000101010D0D0D0D0D020202020202020202020200
310
00000000000000000000000000000000000004040404040404000000010601010106060101010101010101010101010606010D0D0D01040404040404040400000000000000000000000000040404040402020202020202020202020202020201010101010D0D0D010101010D0D0D0202020202010101000000000000000000
310
0202020202020202020202020202020202020D0D0D000D0202020D0D0D00010000010D0D0D0D00000202020202020202020202020000000000000000000000000000000000000004040404040404000000010601010606060601010101010101010101060D06060D0D0D010404040404040404000000000000000000000000
310
0004040404040404040400000000000000000000000101010101000D0C0C0C0C0C0C0C0C020202020201010101010000000000000000000000000000000000000000000000000000000000020202020D0D0D010101010D0D0D0D01000000000000000000000000000000000000000000000000000000000000000000040404
310
04040404000000010A010106060606010101010101010101010D0D06060D0D0D010404040404040404000000000000000000000000000404040404040404040000000000000000000000010101010101010C0C0C0C0C0C0C0C0D0D020202010101010100000000000000000000000000000000000000000000000000000000
310
00020202020D0C0C0C0C0C0D0D0D0D010100000000000000000000000000000000000000000000000000000000000000000004040404040404000000000A0101010A0A010101010101010101010D0D0D0A010D0D0D040404040404040404000000000000000000000000000404040404040404040000000000000000000000
310
010101010101010C0C0C0C0C0C0C0C0D0D0D0101010101010202020202020200000000000000000000000000000000000000000000000202020C0C0C0C0C0C0C0C0C01010101010101010101000000000000000000000000000000000000000000000000000000040404040404040D0D0D0D0D0D0D0D0D0A01010101010101
310
01010D0D0D0A0A010D0D0D040404040404040404000000000000000000000000000404040404020202020202020202020202020202010101010101010C0C0C0C0D0D0D0D0D0D0D0D0D01010D0D0D0202020202020202020202020202020202020202020000000D0D0D00000D0D0D0C0C0C0C0C0C0C0C0C0101010101010101
310
0101000000000000000000000000000000000000000000000000000000040404040404040D0D0D0D0D0D0D0D0D0A0A0A0000000000000D0D0D0D0D0D020D0D0D04040404040404040400000000000000000000000000040404040402020202020202020202020202020D0D0D0101010D0D0C0C010101010D0D0D0D0D0D0D0D
310
0D0D0D0D0202020202020202020202020202020202020202020202020D0D0D0D0D0D0D0D0C0C0C0C0C0C0C0C0C010106060601010101010000000000000000000000000000000000000000000000000000000404040404020202020202020202020202020202020000000D0D0D000D0D0D02020D0D04040404040404040400
310
000000000000000000000000040404040402020202020202020202020202020D0D0D0D0D0D0D0D0C0C0101010D0D00000D0D0D0D0D0D0D0D0D0202020202020202020202020202020202020202020202020D0D0D0D0D0D0D0D0D0D0D0D0D0D0101010106060606010101010100000000000000000000000000000000000000
310
000000000000000004040404040202020202020202020202020202020202000D0D0D00000D0D0D02020D0D04040404040404040400000000000000000000000000040404040402020202020202020202020202020D0D0D0D0D0D0D0D0C0C0101010D0D0D0D0D0D06060D0D0D0D0D0202020202020202020202020202020202
310
020202020202020D0D0D0D0D0D0D0D0D0D0D0D0D0D01010100060606060101010101000000000000000000000000000000000000000000000000000000040404040402020202020202020202020202020202020D0D0D020202020D0D02020D0202040404040404040400000000000000000000000000040404040402020202
310
020202020202020202020D0D0D0D0D0D01010C0C01010D0D0D0D0D0D0D0D0D0D0D0D0D0D0202020202020202020202020202020202020202020202020D0D0D0000000000000D0D0D0D0D0101010006060600010101010100000000000000000000000000000000000000000000000000000004040404040202020202020202
310
0202020202020202020D0D0D0202020202020202020202040404040404040400000000000000000000000000040404040402020202020202020202020202020D0D0D01010101010C0C01010D0D0D0D0D0D0D0D0D0D0D0D0D0D0202020202020202020202020202020202020202020202020D0D0D0D0D0D0D0D0D0D0D0D0D0D
310
01010100060606060101010101000000000000000000000000000000000000000000000000000000040404040402020202020202020202020202020202020D0D0D020202020202020202020204040404040404040000000000000000000000000004040404040404040400000000000000000000000101010101010C0C0C0D
310
010D0D0D0D0D01010D0D0D0D0D0D0D0202020202020202020202020202020202020202020202020D0D0D0D0D0D0D0D0D0D0D0D0D0D0101010006060606010101010100000000000000000000000000000000000000000000000000000004040404040202020202020202020202020202020202040404040404040404040404
310
04040404040404040404000000000202020202020202020404040404040404040000000000000000000000010101010D0D0C0C0C0D01010D0D0D0D0D01010101010D0D0D0202020202020202020202020202020202020202020202020D0D0D0D0D0D0D0D0D0D0D0D0D0D010101010101010101010101010000000000000000
310
00000000000000000000000000000000000000040404040402020202020202020202020202020202020404040404040404040404040404040404040404040400000000020202020202020202040404040402020202020202020202020202020200000D0D0D0D0C0C0C0D010101010D0D0D0D0D0101010D0D0D020202020202
310
020202020202020202020202020202020202020000000000000D0D0D0D0D0D0D0101010101010101010101010100000000000000000000000000000000000000000000000000000004040404040404040404040404040404040404040404040404040404040404040404040404040404040404040000000002020202020202
310
02020404040404020202020202020202020202020D0D0D0D0D0D0D0D0D0D0D0D0D0D0D0101010D0D0D0D0D010D0D0D0202020202020202020202020202020202020202020202020D0D0D000D0D0D0D0D0D0D0D010D010101010101010101010101010000000000000000000000000000000000000000000000000000000404
310
040404040404040404040404040404040404040404040404040404040404040404040404040404040404000000000202020202020202020404040404020202020202020202020202020D0D0D0D0D0D04020D0D0D0D0D0D0D020202020D0D0D0D0D0D0D0D0202020202020202020202020202020202020202020202020D0D0D
310
0D0D0D0D0D0D040404040D0D0D02020202040404040404040404040404040404040404040404040404040404040404040404040404040404040404040404040404040404040404040404040404040404040404040404040404040404040404000000000202020202020202020404040404020202020202020202020202020D
310
0D0D0D040404020D0D0D0D0D0D0D0202020204040D0D0D0D0D0D0202020202020202020202020202020202020202020202020D0D0D0D0D0D0D0404040404040D0D0D02020202040404040404040404040404040404040404040404040404040404040404040404040404040404040404040404040404040404040404040404
310
040404040404040404040404040404040404040404000000000202020202020202020404040404020202020202020202020202040D0D0D04040404020D0D0D0D0D0D0D02020202040404040D0D0D0D0202020202020202020202020202020202020202020202020D0D0D0D040404040404040404040D0D0202020204040404
310
04040404040404040404040404040404040404040404040404040404040404040404040404040404040404040404040404040404040404040404040404040404040404040404040404040000000002020202020202020204040404040404040404040404040404040404040404040404040404040404040404040404040404
310
04040D0D0D0202020202020202020202020202020202020202020202020D0D0D0204040404040404040404040404040404040404040404040404040404040404040404040404040404040404040404040404040404040404040404020202020202040402020202020204020202040402020202040402020202020204040404
310
00000000020202020202020202040404040404040404040404040404040404040404040404040404040404040404040404040404040404040402020202020202020202020202020202020202020202020202020202020404040404040404040404040404040404040404040404040404040404040404040404040404040404
310
04040404040404040404040404040404040402020204040404040202020404040202020404020202020404020202020202040404040000000002020202020202020202020202040404040404040404040404040404040404040404040404040404040404040404040404040404040404040404040404040404040404040404
310
04040404040404040404040404040404040404040404040404040404040404040404040404040404040404040404040404040404040404040404040404040404040404040404040404040404040404040404040404020202040404040404040404040404040400000000000000000202020202020202020202020204040404
310
04040404040404040404040404040404040404040404040404040404040404040404040404040404040404040404040404040404040404040404040404040404040404040404040404040404040404040404040404040404040404040404040404040404040404040404040404040404040404040404040404040404040404
310
04040404040404040404040404040404040404040404040404040404000000000000000002020202020202020202020202040404040404040404040404040404040404040404040404040404040404040404040404040404040404040404040404040404040404040404040404040404040404040404040404040404040404
310
04040404040404040404040404040404040404040404040404040404040404040404040404040404040404040404040404040404040404040404040404040404040404040404040404040404040404040400000000000000000000000000000000000000000000000000000000000000000000000000000000000000000000
310
00000000000000000000000000000000000000000000000000000000000000000000000000000000000000000000000000000000000000000000000000000000000000000000000000000000000000000000000000000000000000000000000000000000000000000000000000000000000000000000000000000000000000
310
000000000000000000000000000708
  0
ENDSEC
  0
EOF
